<svg xmlns="http://www.w3.org/2000/svg">
<defs>
<font id="JaneAusU" horiz-adv-x="0" >
  <font-face 
    font-family="JaneAusU"
    font-weight="400"
    font-stretch="normal"
    units-per-em="2048"
    panose-1="2 0 0 0 0 0 0 0 0 0"
    ascent="1638"
    descent="-410"
    x-height="632"
    cap-height="1594"
    bbox="-1355 -1400 13549 2194.44"
    underline-thickness="20"
    underline-position="-143"
    unicode-range="U+0020-25CA"
  />
<missing-glyph horiz-adv-x="3323" 
d="M1621 2104q327 -2 543 -109t396.5 -344.5t281.5 -555.5t102 -820q-1 -444 -207.5 -884.5t-492 -602.5t-523.5 -162q-269 0 -482.5 82t-429 319t-328.5 570.5t-128 744.5q3 481 155.5 890t450.5 630.5t662 241.5zM442 359q-3 -245 38 -434q14 54 88.5 69t247.5 87
q52 91 187 102l80 -5q26 25 68 36t89.5 45.5t116.5 113.5h12q-3 -23 -46.5 -68.5t-74 -63.5t-30.5 -46q62 -212 112 -252.5t156.5 -63t370.5 4t378.5 49.5t154 69t53.5 101t8 104t-31.5 69.5t-88 42t-128 62t-87.5 69.5q-32 -59 -112.5 -106.5t-211 -60.5t-225 9t-139.5 87
l-19 19h-7l-20 -12l-6 12q0 11 64 46q58 41 58.5 111.5t-12.5 115.5l6 10l16 -17q16 -80 6 -139.5t-47 -80.5v-6q51 -47 150 -73.5t231 5t164 31.5t72 56q-20 41 -35 74t-8.5 101.5t23.5 175.5l-39 19q-29 -80 -64 -97l-33 32h-7v6q0 40 40 40v6q-33 0 -33 26l78 84l6 -6
q0 36 39 58h7v-6q0 -13 -20 -13v-6l20 -20l19 7l-6 32v6h6l33 -19l25 58l-32 7v6h13v7h-13l-7 -7l-6 14v52h-13q0 -26 -45 -46h-13v6q13 26 39 26l-7 20l-32 -6l-13 6q0 -65 -20 -65h-6v7l6 25q-17 65 -39 98v39q14 0 45 52v6q-31 -1 -31 -13l-40 13h-26v13q20 0 20 13
l-13 -7l-33 7q5 -65 33 -65v-25h-13q0 15 -39 38l-13 -7l-26 20l-13 -6v6l-39 -13v-13q52 0 52 -25l32 6l26 -39h-12l19 -26l-13 -13l-33 26v-6l13 -14v-13h-19l-46 33h-6v-13l13 -13l20 6v-19l-66 -7h-6l-43 11l26 10q-14 16 -12 40l-17 -9q-13 0 -13 19l-25 -38l-20 26v6
h13l-7 13v14l33 45v19q33 19 65 19h58l66 -25v6q-17 65 -46 65v-6l7 -33h-13q-11 0 -27 39l33 78v7q-35 54 -45 97h19v-13h6v13q-22 19 -188 52h-52v-6q98 0 98 -27q0 -52 -85 -71h-6l-7 -65l45 -20q53 18 53 33v13l-26 13l-33 -7v7q6 20 39 20q39 0 39 -46q0 -21 -33 -39

<glyph glyph-name=".notdef" unicode="&#x2126;" horiz-adv-x="3323" 
d="M1621 2104q327 -2 543 -109t396.5 -344.5t281.5 -555.5t102 -820q-1 -444 -207.5 -884.5t-492 -602.5t-523.5 -162q-269 0 -482.5 82t-429 319t-328.5 570.5t-128 744.5q3 481 155.5 890t450.5 630.5t662 241.5zM442 359q-3 -245 38 -434q14 54 88.5 69t247.5 87
q52 91 187 102l80 -5q26 25 68 36t89.5 45.5t116.5 113.5h12q-3 -23 -46.5 -68.5t-74 -63.5t-30.5 -46q62 -212 112 -252.5t156.5 -63t370.5 4t378.5 49.5t154 69t53.5 101t8 104t-31.5 69.5t-88 42t-128 62t-87.5 69.5q-32 -59 -112.5 -106.5t-211 -60.5t-225 9t-139.5 87
l-19 19h-7l-20 -12l-6 12q0 11 64 46q58 41 58.5 111.5t-12.5 115.5l6 10l16 -17q16 -80 6 -139.5t-47 -80.5v-6q51 -47 150 -73.5t231 5t164 31.5t72 56q-20 41 -35 74t-8.5 101.5t23.5 175.5l-39 19q-29 -80 -64 -97l-33 32h-7v6q0 40 40 40v6q-33 0 -33 26l78 84l6 -6
q0 36 39 58h7v-6q0 -13 -20 -13v-6l20 -20l19 7l-6 32v6h6l33 -19l25 58l-32 7v6h13v7h-13l-7 -7l-6 14v52h-13q0 -26 -45 -46h-13v6q13 26 39 26l-7 20l-32 -6l-13 6q0 -65 -20 -65h-6v7l6 25q-17 65 -39 98v39q14 0 45 52v6q-31 -1 -31 -13l-40 13h-26v13q20 0 20 13
l-13 -7l-33 7q5 -65 33 -65v-25h-13q0 15 -39 38l-13 -7l-26 20l-13 -6v6l-39 -13v-13q52 0 52 -25l32 6l26 -39h-12l19 -26l-13 -13l-33 26v-6l13 -14v-13h-19l-46 33h-6v-13l13 -13l20 6v-19l-66 -7h-6l-43 11l26 10q-14 16 -12 40l-17 -9q-13 0 -13 19l-25 -38l-20 26v6
h13l-7 13v14l33 45v19q33 19 65 19h58l66 -25v6q-17 65 -46 65v-6l7 -33h-13q-11 0 -27 39l33 78v7q-35 54 -45 97h19v-13h6v13q-22 19 -188 52h-52v-6q98 0 98 -27q0 -52 -85 -71h-6l-7 -65l45 -20q53 18 53 33v13l-26 13l-33 -7v7q6 20 39 20q39 0 39 -46q0 -21 -33 -39
q0 -10 -71 -45l-13 6l-13 -6q-29 8 -46 51l14 59v7h-7l-13 -59l-32 6l-39 -52q0 -38 -100 -50q-55 29 -38.5 79t66.5 50l14 6v33q15 15 31 84l14 7l-14 52v32q0 58 104 58q32 85 85 85l195 19l39 -32v7q0 12 -20 12v20h20l13 -7l6 7q79 -58 124 -65l19 -26v-13h-6
q-22 26 -98 39q0 20 -32 20h-7q0 -20 -19 -20l-45 -7q-24 17 -7 33h-6q-118 0 -118 -20q20 0 52 7v-7q0 -16 -71 -25h-6l-14 12l7 13h-13l-32 -32h-7v19h-13l-26 -58h-13l-39 -6l-13 6q-45 0 -45 -91v-13h7q42 55 97 65l52 13q231 0 409 -175q30 -100 91 -183v7
q-26 35 -26 65h12q0 -21 40 -65v-7l-7 -6q15 0 33 -129l13 -79h-7v-6h19q0 19 13 19l39 -58l-12 -7l-7 7v-7l19 -19l79 58q23 92 64 92q0 38 13 38h6v-26l7 -32q-17 0 -26 -59v-32h-12l6 -13l-20 -26v-6q45 24 45 64l7 7l-13 13q15 0 20 32l26 -32l-7 -13v-7l7 -12l-46 -46
q-15 -15 -77 -33v7q-66 -26 -66 -39q-14 -59 -58 -59l-7 -6l-19 6v7l13 39h6l27 -19h6q5 71 26 71l6 -7v7l-6 6l6 7h-6q-15 0 -32 -39q-68 -9 -73 -76t-18.5 -152.5t5.5 -161t76 -116t133.5 -80t159.5 -58.5q89 62 196 43.5t215 -105.5v108q-7 539 -192 942t-432.5 567.5
t-621.5 161.5q-385 -30 -649.5 -261t-404 -675.5t-114.5 -721.5zM1902 1847l13 -13h143q45 0 45 -52q156 -31 156 -52q0 -24 45 -39v-13l45 6l59 -117l26 -32l-6 -19h-13q-39 81 -56.5 109t-80.5 40q0 25 -45 65q-19 -29 19 -65v-13h-6q-46 25 -46 59l7 25h-7
q-80 27 -108 23.5t-54 -36.5l-10 25q4 26 36 27q8 25 -9.5 36t-139.5 3q-34 0 -39 20v6zM1863 1684q72 -16 117 -71q26 0 29 -48.5t39 -97.5t48 -49l14 -19h-20l-19 13h-7l13 -20l-6 -7q19 -6 19 -38q-20 7 -52 71v39h-6l-10 -10q-12 36 -28 67t-12 45.5t0 28.5t-52 49.5
t-87 27.5v13zM2233 1639h33l-33 -45q0 13 -39 25v13l39 -13v20zM2285 1632h19q16 0 20 -45h-20v26l-13 -13l7 -13l-7 -20l33 -71v-26h-13l-7 26h-6q0 -41 -20 -45l-6 65h6l-12 26l12 25q-26 0 -26 13v27h7l19 -13zM2135 1619v-39q25 -2 32.5 -13.5t0.5 -18.5
q33 -4 32.5 -24.5t-8 -28t7.5 -25.5l-13 -6q-17 26 -11.5 39t-11 36t-29 29t-19.5 39zM2318 1574h6q16 0 25 -78l14 7l19 -20v-7h-19l13 -38v-7l-13 -13h-14l7 33q-38 66 -38 123zM1480 1548l-7 -13l46 7v6h-39zM1440 1522v-13l20 19zM2441 1522q12 0 19 -78l7 -13l-14 -19
l7 -7l-13 -72l6 -84l-6 -20l13 -103q-13 -39 -45 -39v-7l7 -32h-14q-10 0 -19 46l-7 6l26 65l14 12h6v-6l-6 -39l6 -19l13 13l-7 39l7 39l-7 -6l-45 12q0 116 -40 143l-6 26v20h20v-27l19 -25l7 25l-7 13l7 20h12l7 -33v-6l-13 -45q5 -104 13 -104l14 -7q15 21 19 59l-7 84
l7 32l-13 14l6 6l-6 13v20h6l13 -7v7l-13 13v6l7 7l-7 12v14zM1409 1503v-7h12l7 13zM2220 1444h13v-26l-13 -13v39zM1343 1366q-6 -21 -6 -27t16 -9.5t49 42.5h-14q-29 -10 -45 -6zM1830 1372v-12q16 0 46 -27h6v14l-25 25h-27zM1525 1366v-6l13 -13v6zM2266 1353
q32 -9 32 -45v-13l-7 -59l20 -32v-13q-23 0 -39 58l6 32h-6v46l-13 20zM1973 1308l-19 -27h19l7 20v7h-7zM1525 1269v-7l-6 -13l32 -26l-7 -13l7 -19q0 -14 -45 -52q0 -26 -20 -26h-13l-6 19q45 8 45 45l-20 14v-7l14 -13h-14l-38 20l-10 -43l-38 2q-20 29 -11 54h-19v19
l39 13l6 -7l7 27h6l20 -13v6l13 -6h6v13l13 -7v13q-39 23 -71 16t-46 -3v6q0 20 50 22t106 -34zM1305 1287q0 -16 32 -18v-33l-20 -7v14q-44 -8 -30 -23.5t50 3.5l14 6l-1 -19l-28 -36l-32 -3q-51 14 -58 56q11 51 73 60zM2194 1281h6q15 0 20 -32q-26 10 -26 20v12z
M1681 1249v-13l26 7v6h-26zM1467 1217v-7l19 -12v12zM1999 1210v-33h7l13 27v6h-20zM1720 1198v-7l58 -14v7l-39 14h-19zM1798 1177v-6l20 -13v7zM1343 1158v-6q-6 -26 -3.5 -85.5t25.5 -139.5t37 -93v-20h-7q-75 159 -71 332zM2155 1146l7 -14v-6h-20v6zM2285 1061v-13h13
l26 78q-16 0 -33 -59zM1681 1113l52 -26v-7l-7 -6l7 -13v-7h-13q-44 24 -52 52zM2272 1009v-13l19 19zM1857 957l11 -23l-11 -16l6 -13v-6l-20 19v6l10 14h-16v13zM2038 918q0 -13 -26 -32v-39h7l13 25l-7 20l19 19v7h-6zM1850 886h13l1 -20l-14 -7v27zM1882 866l8 -9
l-12 -14l-9 10zM1992 840l-6 -13h6l20 7v6h-20zM1934 782v-7l20 20h-7zM1440 775h7l20 -19v-26h-7l-20 38v7zM1882 749l13 -13v-13l-6 -13l-20 6v7zM1915 743h6l13 -33h-6q-19 5 -26 26zM1778 671l13 -13q-19 0 -19 -39h-6l-13 14v12zM1850 664v-6l-13 -13h-7v13zM1733 639
l13 -13v-14q-13 0 -13 -19h-7l-32 7v-19q-31 0 -111 31v7q104 0 104 14l14 -7zM1454 418l-14 -20q40 -60 156 -84t234.5 -1.5t133.5 57.5q-74 -13 -118.5 -26t-108.5 -16.5t-133.5 15t-149.5 75.5zM2522.5 202.5q23.5 -31.5 69 -96t72.5 -184t10.5 -222t-54 -217.5t-19 -127
t60 50.5t103.5 291.5q66 233 77 370.5t-50.5 182t-130 64.5t-117.5 4.5t-47 -50.5t25.5 -66.5zM2461 67.5q-18 -61.5 -79 -111.5t-364.5 -82.5t-442 -28t-212.5 30.5t-108.5 124.5t-67.5 170.5l-6 13h-13q-39 -4 -39 -19q24 -19 39 -89t76.5 -184t137.5 -103q263 -19 447 -3
t383 50t279.5 109t68.5 121.5t-72 134.5q-9 -72 -27 -133.5zM791 -415.5q15 -166.5 33.5 -233.5t38.5 -108q71 144 168 149t164.5 18t141.5 -30q27 13 -2.5 68t-25.5 138t-13.5 120t-12.5 58q-110 184 -178 376q-66 20 -133.5 10t-105 -57t-64 -194.5t-11.5 -314zM591 -65
q93 -111 105.5 -255t25.5 -284.5t31 -162.5q101 -142 151.5 -197.5t1.5 47.5t-72 104q-81 321 -84.5 508.5t41.5 320.5q-94 -37 -200 -81zM1538 -250q-175 0 -212 15q27 -88 19 -165.5t8 -113t31 -79t5 -56t26 -101.5q231 10 287.5 44t121 50t208 16t221 3t121.5 -6.5
t93 -9.5t90 98.5t72.5 183t20.5 177t-57 180.5q-26 -25 -73.5 -63.5t-110.5 -63.5t-180.5 -47t-307 -45.5t-383.5 -16.5zM487 -121q64 -306 130 -428.5t77 -122.5q0 64 -15.5 239t-46.5 239.5t-69 106t-76 -33.5zM1506 -516h6v-21l-13 -12l-13 12zM1067.5 -634
q-61.5 0 -108.5 -45t-58 -80t34.5 -136.5t75 -170.5t245.5 -151t445 -79l142 14q-38 56 -35 119.5t32 91.5t25 44.5t-15 16.5q-49 -26 -78 -26l-71 20q-56 0 -135.5 -49t-100.5 -49t-148 -33h-32l-39 46l-39 -6q-20 0 -39 39l-13 -7q-27 9 -39 32v40l78 116v7h-20l-71 -20
q-34 0 -52 52q0 21 52 27q10 17 111 84q77 0 162 -26v13l-33 90q-67 37 -140.5 31.5t-135 -5.5zM1900 -681q-124 -11 -169 -43.5t-224 -50.5l-72 -5l123 -55l84 -38q67 49 167 61t210 20.5t255.5 -6t193.5 7t44 111.5l-32 -6q-150 19 -303 17t-277 -13zM2182 -825
q-111 10 -244 -3t-201.5 -31.5t-68.5 -27.5v-13l39 -45v-7h-13q-20 0 -62 36t-152 84.5t-178 59t-106 -9.5t-93 -78l13 -7l156 46h52q23 -20 45 -20v-26h-6q-120 0 -156 -65q-65 -59 -65 -104h13q80 73 150 104l12 13h59q35 0 45 -39l-12 -6l-46 12q-88 -20 -124 -58
l-32 -33v-6l26 -19q47 30 176 52l19 6h12v-19l-149 -39h-6v-20q0 -19 58 -26q184 43 201 65q79 58 143 58l91 -12q22 0 59 26h32q12 0 31 -45q184 27 300 41.5t183 -16.5l-22 -18q-41 24 -215.5 4.5t-246.5 -32.5q-10 -24 -34.5 -57t-27 -75t31 -68.5t83.5 -17t204.5 97
t229 165.5t128.5 176q-50 -13 -135.5 -13t-196.5 10zM1598 996.5q10 0.5 12.5 -18.5t13.5 -27.5t23 -3.5t8 43q19 0 39 -39h-7l7 -13v-7q-17 0 -52 -39q-13 0 -19 7q-5 -23 -15 -23l-13 13l5 12q-56 -2 -56 20q34 7 40 24.5t5 34t9 17zM1499 956q13 1 19.5 -5.5t6.5 -26.5
q-23 7 -26 32zM1556 856l23 -9l29 9l84 -24l5 -15l-24 -2l-80 10l-41 -8l-26 15v-7l-20 7v15z" />
    <glyph glyph-name=".notdef" unicode="&#x222b;" horiz-adv-x="3323" 
d="M1621 2104q327 -2 543 -109t396.5 -344.5t281.5 -555.5t102 -820q-1 -444 -207.5 -884.5t-492 -602.5t-523.5 -162q-269 0 -482.5 82t-429 319t-328.5 570.5t-128 744.5q3 481 155.5 890t450.5 630.5t662 241.5zM442 359q-3 -245 38 -434q14 54 88.5 69t247.5 87
q52 91 187 102l80 -5q26 25 68 36t89.5 45.5t116.5 113.5h12q-3 -23 -46.5 -68.5t-74 -63.5t-30.5 -46q62 -212 112 -252.5t156.5 -63t370.5 4t378.5 49.5t154 69t53.5 101t8 104t-31.5 69.5t-88 42t-128 62t-87.5 69.5q-32 -59 -112.5 -106.5t-211 -60.5t-225 9t-139.5 87
l-19 19h-7l-20 -12l-6 12q0 11 64 46q58 41 58.5 111.5t-12.5 115.5l6 10l16 -17q16 -80 6 -139.5t-47 -80.5v-6q51 -47 150 -73.5t231 5t164 31.5t72 56q-20 41 -35 74t-8.5 101.5t23.5 175.5l-39 19q-29 -80 -64 -97l-33 32h-7v6q0 40 40 40v6q-33 0 -33 26l78 84l6 -6
q0 36 39 58h7v-6q0 -13 -20 -13v-6l20 -20l19 7l-6 32v6h6l33 -19l25 58l-32 7v6h13v7h-13l-7 -7l-6 14v52h-13q0 -26 -45 -46h-13v6q13 26 39 26l-7 20l-32 -6l-13 6q0 -65 -20 -65h-6v7l6 25q-17 65 -39 98v39q14 0 45 52v6q-31 -1 -31 -13l-40 13h-26v13q20 0 20 13
l-13 -7l-33 7q5 -65 33 -65v-25h-13q0 15 -39 38l-13 -7l-26 20l-13 -6v6l-39 -13v-13q52 0 52 -25l32 6l26 -39h-12l19 -26l-13 -13l-33 26v-6l13 -14v-13h-19l-46 33h-6v-13l13 -13l20 6v-19l-66 -7h-6l-43 11l26 10q-14 16 -12 40l-17 -9q-13 0 -13 19l-25 -38l-20 26v6
h13l-7 13v14l33 45v19q33 19 65 19h58l66 -25v6q-17 65 -46 65v-6l7 -33h-13q-11 0 -27 39l33 78v7q-35 54 -45 97h19v-13h6v13q-22 19 -188 52h-52v-6q98 0 98 -27q0 -52 -85 -71h-6l-7 -65l45 -20q53 18 53 33v13l-26 13l-33 -7v7q6 20 39 20q39 0 39 -46q0 -21 -33 -39
q0 -10 -71 -45l-13 6l-13 -6q-29 8 -46 51l14 59v7h-7l-13 -59l-32 6l-39 -52q0 -38 -100 -50q-55 29 -38.5 79t66.5 50l14 6v33q15 15 31 84l14 7l-14 52v32q0 58 104 58q32 85 85 85l195 19l39 -32v7q0 12 -20 12v20h20l13 -7l6 7q79 -58 124 -65l19 -26v-13h-6
q-22 26 -98 39q0 20 -32 20h-7q0 -20 -19 -20l-45 -7q-24 17 -7 33h-6q-118 0 -118 -20q20 0 52 7v-7q0 -16 -71 -25h-6l-14 12l7 13h-13l-32 -32h-7v19h-13l-26 -58h-13l-39 -6l-13 6q-45 0 -45 -91v-13h7q42 55 97 65l52 13q231 0 409 -175q30 -100 91 -183v7
q-26 35 -26 65h12q0 -21 40 -65v-7l-7 -6q15 0 33 -129l13 -79h-7v-6h19q0 19 13 19l39 -58l-12 -7l-7 7v-7l19 -19l79 58q23 92 64 92q0 38 13 38h6v-26l7 -32q-17 0 -26 -59v-32h-12l6 -13l-20 -26v-6q45 24 45 64l7 7l-13 13q15 0 20 32l26 -32l-7 -13v-7l7 -12l-46 -46
q-15 -15 -77 -33v7q-66 -26 -66 -39q-14 -59 -58 -59l-7 -6l-19 6v7l13 39h6l27 -19h6q5 71 26 71l6 -7v7l-6 6l6 7h-6q-15 0 -32 -39q-68 -9 -73 -76t-18.5 -152.5t5.5 -161t76 -116t133.5 -80t159.5 -58.5q89 62 196 43.5t215 -105.5v108q-7 539 -192 942t-432.5 567.5
t-621.5 161.5q-385 -30 -649.5 -261t-404 -675.5t-114.5 -721.5zM1902 1847l13 -13h143q45 0 45 -52q156 -31 156 -52q0 -24 45 -39v-13l45 6l59 -117l26 -32l-6 -19h-13q-39 81 -56.5 109t-80.5 40q0 25 -45 65q-19 -29 19 -65v-13h-6q-46 25 -46 59l7 25h-7
q-80 27 -108 23.5t-54 -36.5l-10 25q4 26 36 27q8 25 -9.5 36t-139.5 3q-34 0 -39 20v6zM1863 1684q72 -16 117 -71q26 0 29 -48.5t39 -97.5t48 -49l14 -19h-20l-19 13h-7l13 -20l-6 -7q19 -6 19 -38q-20 7 -52 71v39h-6l-10 -10q-12 36 -28 67t-12 45.5t0 28.5t-52 49.5
t-87 27.5v13zM2233 1639h33l-33 -45q0 13 -39 25v13l39 -13v20zM2285 1632h19q16 0 20 -45h-20v26l-13 -13l7 -13l-7 -20l33 -71v-26h-13l-7 26h-6q0 -41 -20 -45l-6 65h6l-12 26l12 25q-26 0 -26 13v27h7l19 -13zM2135 1619v-39q25 -2 32.5 -13.5t0.5 -18.5
q33 -4 32.5 -24.5t-8 -28t7.5 -25.5l-13 -6q-17 26 -11.5 39t-11 36t-29 29t-19.5 39zM2318 1574h6q16 0 25 -78l14 7l19 -20v-7h-19l13 -38v-7l-13 -13h-14l7 33q-38 66 -38 123zM1480 1548l-7 -13l46 7v6h-39zM1440 1522v-13l20 19zM2441 1522q12 0 19 -78l7 -13l-14 -19
l7 -7l-13 -72l6 -84l-6 -20l13 -103q-13 -39 -45 -39v-7l7 -32h-14q-10 0 -19 46l-7 6l26 65l14 12h6v-6l-6 -39l6 -19l13 13l-7 39l7 39l-7 -6l-45 12q0 116 -40 143l-6 26v20h20v-27l19 -25l7 25l-7 13l7 20h12l7 -33v-6l-13 -45q5 -104 13 -104l14 -7q15 21 19 59l-7 84
l7 32l-13 14l6 6l-6 13v20h6l13 -7v7l-13 13v6l7 7l-7 12v14zM1409 1503v-7h12l7 13zM2220 1444h13v-26l-13 -13v39zM1343 1366q-6 -21 -6 -27t16 -9.5t49 42.5h-14q-29 -10 -45 -6zM1830 1372v-12q16 0 46 -27h6v14l-25 25h-27zM1525 1366v-6l13 -13v6zM2266 1353
q32 -9 32 -45v-13l-7 -59l20 -32v-13q-23 0 -39 58l6 32h-6v46l-13 20zM1973 1308l-19 -27h19l7 20v7h-7zM1525 1269v-7l-6 -13l32 -26l-7 -13l7 -19q0 -14 -45 -52q0 -26 -20 -26h-13l-6 19q45 8 45 45l-20 14v-7l14 -13h-14l-38 20l-10 -43l-38 2q-20 29 -11 54h-19v19
l39 13l6 -7l7 27h6l20 -13v6l13 -6h6v13l13 -7v13q-39 23 -71 16t-46 -3v6q0 20 50 22t106 -34zM1305 1287q0 -16 32 -18v-33l-20 -7v14q-44 -8 -30 -23.5t50 3.5l14 6l-1 -19l-28 -36l-32 -3q-51 14 -58 56q11 51 73 60zM2194 1281h6q15 0 20 -32q-26 10 -26 20v12z
M1681 1249v-13l26 7v6h-26zM1467 1217v-7l19 -12v12zM1999 1210v-33h7l13 27v6h-20zM1720 1198v-7l58 -14v7l-39 14h-19zM1798 1177v-6l20 -13v7zM1343 1158v-6q-6 -26 -3.5 -85.5t25.5 -139.5t37 -93v-20h-7q-75 159 -71 332zM2155 1146l7 -14v-6h-20v6zM2285 1061v-13h13
l26 78q-16 0 -33 -59zM1681 1113l52 -26v-7l-7 -6l7 -13v-7h-13q-44 24 -52 52zM2272 1009v-13l19 19zM1857 957l11 -23l-11 -16l6 -13v-6l-20 19v6l10 14h-16v13zM2038 918q0 -13 -26 -32v-39h7l13 25l-7 20l19 19v7h-6zM1850 886h13l1 -20l-14 -7v27zM1882 866l8 -9
l-12 -14l-9 10zM1992 840l-6 -13h6l20 7v6h-20zM1934 782v-7l20 20h-7zM1440 775h7l20 -19v-26h-7l-20 38v7zM1882 749l13 -13v-13l-6 -13l-20 6v7zM1915 743h6l13 -33h-6q-19 5 -26 26zM1778 671l13 -13q-19 0 -19 -39h-6l-13 14v12zM1850 664v-6l-13 -13h-7v13zM1733 639
l13 -13v-14q-13 0 -13 -19h-7l-32 7v-19q-31 0 -111 31v7q104 0 104 14l14 -7zM1454 418l-14 -20q40 -60 156 -84t234.5 -1.5t133.5 57.5q-74 -13 -118.5 -26t-108.5 -16.5t-133.5 15t-149.5 75.5zM2522.5 202.5q23.5 -31.5 69 -96t72.5 -184t10.5 -222t-54 -217.5t-19 -127
t60 50.5t103.5 291.5q66 233 77 370.5t-50.5 182t-130 64.5t-117.5 4.5t-47 -50.5t25.5 -66.5zM2461 67.5q-18 -61.5 -79 -111.5t-364.5 -82.5t-442 -28t-212.5 30.5t-108.5 124.5t-67.5 170.5l-6 13h-13q-39 -4 -39 -19q24 -19 39 -89t76.5 -184t137.5 -103q263 -19 447 -3
t383 50t279.5 109t68.5 121.5t-72 134.5q-9 -72 -27 -133.5zM791 -415.5q15 -166.5 33.5 -233.5t38.5 -108q71 144 168 149t164.5 18t141.5 -30q27 13 -2.5 68t-25.5 138t-13.5 120t-12.5 58q-110 184 -178 376q-66 20 -133.5 10t-105 -57t-64 -194.5t-11.5 -314zM591 -65
q93 -111 105.5 -255t25.5 -284.5t31 -162.5q101 -142 151.5 -197.5t1.5 47.5t-72 104q-81 321 -84.5 508.5t41.5 320.5q-94 -37 -200 -81zM1538 -250q-175 0 -212 15q27 -88 19 -165.5t8 -113t31 -79t5 -56t26 -101.5q231 10 287.5 44t121 50t208 16t221 3t121.5 -6.5
t93 -9.5t90 98.5t72.5 183t20.5 177t-57 180.5q-26 -25 -73.5 -63.5t-110.5 -63.5t-180.5 -47t-307 -45.5t-383.5 -16.5zM487 -121q64 -306 130 -428.5t77 -122.5q0 64 -15.5 239t-46.5 239.5t-69 106t-76 -33.5zM1506 -516h6v-21l-13 -12l-13 12zM1067.5 -634
q-61.5 0 -108.5 -45t-58 -80t34.5 -136.5t75 -170.5t245.5 -151t445 -79l142 14q-38 56 -35 119.5t32 91.5t25 44.5t-15 16.5q-49 -26 -78 -26l-71 20q-56 0 -135.5 -49t-100.5 -49t-148 -33h-32l-39 46l-39 -6q-20 0 -39 39l-13 -7q-27 9 -39 32v40l78 116v7h-20l-71 -20
q-34 0 -52 52q0 21 52 27q10 17 111 84q77 0 162 -26v13l-33 90q-67 37 -140.5 31.5t-135 -5.5zM1900 -681q-124 -11 -169 -43.5t-224 -50.5l-72 -5l123 -55l84 -38q67 49 167 61t210 20.5t255.5 -6t193.5 7t44 111.5l-32 -6q-150 19 -303 17t-277 -13zM2182 -825
q-111 10 -244 -3t-201.5 -31.5t-68.5 -27.5v-13l39 -45v-7h-13q-20 0 -62 36t-152 84.5t-178 59t-106 -9.5t-93 -78l13 -7l156 46h52q23 -20 45 -20v-26h-6q-120 0 -156 -65q-65 -59 -65 -104h13q80 73 150 104l12 13h59q35 0 45 -39l-12 -6l-46 12q-88 -20 -124 -58
l-32 -33v-6l26 -19q47 30 176 52l19 6h12v-19l-149 -39h-6v-20q0 -19 58 -26q184 43 201 65q79 58 143 58l91 -12q22 0 59 26h32q12 0 31 -45q184 27 300 41.5t183 -16.5l-22 -18q-41 24 -215.5 4.5t-246.5 -32.5q-10 -24 -34.5 -57t-27 -75t31 -68.5t83.5 -17t204.5 97
t229 165.5t128.5 176q-50 -13 -135.5 -13t-196.5 10zM1598 996.5q10 0.5 12.5 -18.5t13.5 -27.5t23 -3.5t8 43q19 0 39 -39h-7l7 -13v-7q-17 0 -52 -39q-13 0 -19 7q-5 -23 -15 -23l-13 13l5 12q-56 -2 -56 20q34 7 40 24.5t5 34t9 17zM1499 956q13 1 19.5 -5.5t6.5 -26.5
q-23 7 -26 32zM1556 856l23 -9l29 9l84 -24l5 -15l-24 -2l-80 10l-41 -8l-26 15v-7l-20 7v15z" />
    <glyph glyph-name=".notdef" unicode="&#x2202;" horiz-adv-x="3323" 
d="M1621 2104q327 -2 543 -109t396.5 -344.5t281.5 -555.5t102 -820q-1 -444 -207.5 -884.5t-492 -602.5t-523.5 -162q-269 0 -482.5 82t-429 319t-328.5 570.5t-128 744.5q3 481 155.5 890t450.5 630.5t662 241.5zM442 359q-3 -245 38 -434q14 54 88.5 69t247.5 87
q52 91 187 102l80 -5q26 25 68 36t89.5 45.5t116.5 113.5h12q-3 -23 -46.5 -68.5t-74 -63.5t-30.5 -46q62 -212 112 -252.5t156.5 -63t370.5 4t378.5 49.5t154 69t53.5 101t8 104t-31.5 69.5t-88 42t-128 62t-87.5 69.5q-32 -59 -112.5 -106.5t-211 -60.5t-225 9t-139.5 87
l-19 19h-7l-20 -12l-6 12q0 11 64 46q58 41 58.5 111.5t-12.5 115.5l6 10l16 -17q16 -80 6 -139.5t-47 -80.5v-6q51 -47 150 -73.5t231 5t164 31.5t72 56q-20 41 -35 74t-8.5 101.5t23.5 175.5l-39 19q-29 -80 -64 -97l-33 32h-7v6q0 40 40 40v6q-33 0 -33 26l78 84l6 -6
q0 36 39 58h7v-6q0 -13 -20 -13v-6l20 -20l19 7l-6 32v6h6l33 -19l25 58l-32 7v6h13v7h-13l-7 -7l-6 14v52h-13q0 -26 -45 -46h-13v6q13 26 39 26l-7 20l-32 -6l-13 6q0 -65 -20 -65h-6v7l6 25q-17 65 -39 98v39q14 0 45 52v6q-31 -1 -31 -13l-40 13h-26v13q20 0 20 13
l-13 -7l-33 7q5 -65 33 -65v-25h-13q0 15 -39 38l-13 -7l-26 20l-13 -6v6l-39 -13v-13q52 0 52 -25l32 6l26 -39h-12l19 -26l-13 -13l-33 26v-6l13 -14v-13h-19l-46 33h-6v-13l13 -13l20 6v-19l-66 -7h-6l-43 11l26 10q-14 16 -12 40l-17 -9q-13 0 -13 19l-25 -38l-20 26v6
h13l-7 13v14l33 45v19q33 19 65 19h58l66 -25v6q-17 65 -46 65v-6l7 -33h-13q-11 0 -27 39l33 78v7q-35 54 -45 97h19v-13h6v13q-22 19 -188 52h-52v-6q98 0 98 -27q0 -52 -85 -71h-6l-7 -65l45 -20q53 18 53 33v13l-26 13l-33 -7v7q6 20 39 20q39 0 39 -46q0 -21 -33 -39
q0 -10 -71 -45l-13 6l-13 -6q-29 8 -46 51l14 59v7h-7l-13 -59l-32 6l-39 -52q0 -38 -100 -50q-55 29 -38.5 79t66.5 50l14 6v33q15 15 31 84l14 7l-14 52v32q0 58 104 58q32 85 85 85l195 19l39 -32v7q0 12 -20 12v20h20l13 -7l6 7q79 -58 124 -65l19 -26v-13h-6
q-22 26 -98 39q0 20 -32 20h-7q0 -20 -19 -20l-45 -7q-24 17 -7 33h-6q-118 0 -118 -20q20 0 52 7v-7q0 -16 -71 -25h-6l-14 12l7 13h-13l-32 -32h-7v19h-13l-26 -58h-13l-39 -6l-13 6q-45 0 -45 -91v-13h7q42 55 97 65l52 13q231 0 409 -175q30 -100 91 -183v7
q-26 35 -26 65h12q0 -21 40 -65v-7l-7 -6q15 0 33 -129l13 -79h-7v-6h19q0 19 13 19l39 -58l-12 -7l-7 7v-7l19 -19l79 58q23 92 64 92q0 38 13 38h6v-26l7 -32q-17 0 -26 -59v-32h-12l6 -13l-20 -26v-6q45 24 45 64l7 7l-13 13q15 0 20 32l26 -32l-7 -13v-7l7 -12l-46 -46
q-15 -15 -77 -33v7q-66 -26 -66 -39q-14 -59 -58 -59l-7 -6l-19 6v7l13 39h6l27 -19h6q5 71 26 71l6 -7v7l-6 6l6 7h-6q-15 0 -32 -39q-68 -9 -73 -76t-18.5 -152.5t5.5 -161t76 -116t133.5 -80t159.5 -58.5q89 62 196 43.5t215 -105.5v108q-7 539 -192 942t-432.5 567.5
t-621.5 161.5q-385 -30 -649.5 -261t-404 -675.5t-114.5 -721.5zM1902 1847l13 -13h143q45 0 45 -52q156 -31 156 -52q0 -24 45 -39v-13l45 6l59 -117l26 -32l-6 -19h-13q-39 81 -56.5 109t-80.5 40q0 25 -45 65q-19 -29 19 -65v-13h-6q-46 25 -46 59l7 25h-7
q-80 27 -108 23.5t-54 -36.5l-10 25q4 26 36 27q8 25 -9.5 36t-139.5 3q-34 0 -39 20v6zM1863 1684q72 -16 117 -71q26 0 29 -48.5t39 -97.5t48 -49l14 -19h-20l-19 13h-7l13 -20l-6 -7q19 -6 19 -38q-20 7 -52 71v39h-6l-10 -10q-12 36 -28 67t-12 45.5t0 28.5t-52 49.5
t-87 27.5v13zM2233 1639h33l-33 -45q0 13 -39 25v13l39 -13v20zM2285 1632h19q16 0 20 -45h-20v26l-13 -13l7 -13l-7 -20l33 -71v-26h-13l-7 26h-6q0 -41 -20 -45l-6 65h6l-12 26l12 25q-26 0 -26 13v27h7l19 -13zM2135 1619v-39q25 -2 32.5 -13.5t0.5 -18.5
q33 -4 32.5 -24.5t-8 -28t7.5 -25.5l-13 -6q-17 26 -11.5 39t-11 36t-29 29t-19.5 39zM2318 1574h6q16 0 25 -78l14 7l19 -20v-7h-19l13 -38v-7l-13 -13h-14l7 33q-38 66 -38 123zM1480 1548l-7 -13l46 7v6h-39zM1440 1522v-13l20 19zM2441 1522q12 0 19 -78l7 -13l-14 -19
l7 -7l-13 -72l6 -84l-6 -20l13 -103q-13 -39 -45 -39v-7l7 -32h-14q-10 0 -19 46l-7 6l26 65l14 12h6v-6l-6 -39l6 -19l13 13l-7 39l7 39l-7 -6l-45 12q0 116 -40 143l-6 26v20h20v-27l19 -25l7 25l-7 13l7 20h12l7 -33v-6l-13 -45q5 -104 13 -104l14 -7q15 21 19 59l-7 84
l7 32l-13 14l6 6l-6 13v20h6l13 -7v7l-13 13v6l7 7l-7 12v14zM1409 1503v-7h12l7 13zM2220 1444h13v-26l-13 -13v39zM1343 1366q-6 -21 -6 -27t16 -9.5t49 42.5h-14q-29 -10 -45 -6zM1830 1372v-12q16 0 46 -27h6v14l-25 25h-27zM1525 1366v-6l13 -13v6zM2266 1353
q32 -9 32 -45v-13l-7 -59l20 -32v-13q-23 0 -39 58l6 32h-6v46l-13 20zM1973 1308l-19 -27h19l7 20v7h-7zM1525 1269v-7l-6 -13l32 -26l-7 -13l7 -19q0 -14 -45 -52q0 -26 -20 -26h-13l-6 19q45 8 45 45l-20 14v-7l14 -13h-14l-38 20l-10 -43l-38 2q-20 29 -11 54h-19v19
l39 13l6 -7l7 27h6l20 -13v6l13 -6h6v13l13 -7v13q-39 23 -71 16t-46 -3v6q0 20 50 22t106 -34zM1305 1287q0 -16 32 -18v-33l-20 -7v14q-44 -8 -30 -23.5t50 3.5l14 6l-1 -19l-28 -36l-32 -3q-51 14 -58 56q11 51 73 60zM2194 1281h6q15 0 20 -32q-26 10 -26 20v12z
M1681 1249v-13l26 7v6h-26zM1467 1217v-7l19 -12v12zM1999 1210v-33h7l13 27v6h-20zM1720 1198v-7l58 -14v7l-39 14h-19zM1798 1177v-6l20 -13v7zM1343 1158v-6q-6 -26 -3.5 -85.5t25.5 -139.5t37 -93v-20h-7q-75 159 -71 332zM2155 1146l7 -14v-6h-20v6zM2285 1061v-13h13
l26 78q-16 0 -33 -59zM1681 1113l52 -26v-7l-7 -6l7 -13v-7h-13q-44 24 -52 52zM2272 1009v-13l19 19zM1857 957l11 -23l-11 -16l6 -13v-6l-20 19v6l10 14h-16v13zM2038 918q0 -13 -26 -32v-39h7l13 25l-7 20l19 19v7h-6zM1850 886h13l1 -20l-14 -7v27zM1882 866l8 -9
l-12 -14l-9 10zM1992 840l-6 -13h6l20 7v6h-20zM1934 782v-7l20 20h-7zM1440 775h7l20 -19v-26h-7l-20 38v7zM1882 749l13 -13v-13l-6 -13l-20 6v7zM1915 743h6l13 -33h-6q-19 5 -26 26zM1778 671l13 -13q-19 0 -19 -39h-6l-13 14v12zM1850 664v-6l-13 -13h-7v13zM1733 639
l13 -13v-14q-13 0 -13 -19h-7l-32 7v-19q-31 0 -111 31v7q104 0 104 14l14 -7zM1454 418l-14 -20q40 -60 156 -84t234.5 -1.5t133.5 57.5q-74 -13 -118.5 -26t-108.5 -16.5t-133.5 15t-149.5 75.5zM2522.5 202.5q23.5 -31.5 69 -96t72.5 -184t10.5 -222t-54 -217.5t-19 -127
t60 50.5t103.5 291.5q66 233 77 370.5t-50.5 182t-130 64.5t-117.5 4.5t-47 -50.5t25.5 -66.5zM2461 67.5q-18 -61.5 -79 -111.5t-364.5 -82.5t-442 -28t-212.5 30.5t-108.5 124.5t-67.5 170.5l-6 13h-13q-39 -4 -39 -19q24 -19 39 -89t76.5 -184t137.5 -103q263 -19 447 -3
t383 50t279.5 109t68.5 121.5t-72 134.5q-9 -72 -27 -133.5zM791 -415.5q15 -166.5 33.5 -233.5t38.5 -108q71 144 168 149t164.5 18t141.5 -30q27 13 -2.5 68t-25.5 138t-13.5 120t-12.5 58q-110 184 -178 376q-66 20 -133.5 10t-105 -57t-64 -194.5t-11.5 -314zM591 -65
q93 -111 105.5 -255t25.5 -284.5t31 -162.5q101 -142 151.5 -197.5t1.5 47.5t-72 104q-81 321 -84.5 508.5t41.5 320.5q-94 -37 -200 -81zM1538 -250q-175 0 -212 15q27 -88 19 -165.5t8 -113t31 -79t5 -56t26 -101.5q231 10 287.5 44t121 50t208 16t221 3t121.5 -6.5
t93 -9.5t90 98.5t72.5 183t20.5 177t-57 180.5q-26 -25 -73.5 -63.5t-110.5 -63.5t-180.5 -47t-307 -45.5t-383.5 -16.5zM487 -121q64 -306 130 -428.5t77 -122.5q0 64 -15.5 239t-46.5 239.5t-69 106t-76 -33.5zM1506 -516h6v-21l-13 -12l-13 12zM1067.5 -634
q-61.5 0 -108.5 -45t-58 -80t34.5 -136.5t75 -170.5t245.5 -151t445 -79l142 14q-38 56 -35 119.5t32 91.5t25 44.5t-15 16.5q-49 -26 -78 -26l-71 20q-56 0 -135.5 -49t-100.5 -49t-148 -33h-32l-39 46l-39 -6q-20 0 -39 39l-13 -7q-27 9 -39 32v40l78 116v7h-20l-71 -20
q-34 0 -52 52q0 21 52 27q10 17 111 84q77 0 162 -26v13l-33 90q-67 37 -140.5 31.5t-135 -5.5zM1900 -681q-124 -11 -169 -43.5t-224 -50.5l-72 -5l123 -55l84 -38q67 49 167 61t210 20.5t255.5 -6t193.5 7t44 111.5l-32 -6q-150 19 -303 17t-277 -13zM2182 -825
q-111 10 -244 -3t-201.5 -31.5t-68.5 -27.5v-13l39 -45v-7h-13q-20 0 -62 36t-152 84.5t-178 59t-106 -9.5t-93 -78l13 -7l156 46h52q23 -20 45 -20v-26h-6q-120 0 -156 -65q-65 -59 -65 -104h13q80 73 150 104l12 13h59q35 0 45 -39l-12 -6l-46 12q-88 -20 -124 -58
l-32 -33v-6l26 -19q47 30 176 52l19 6h12v-19l-149 -39h-6v-20q0 -19 58 -26q184 43 201 65q79 58 143 58l91 -12q22 0 59 26h32q12 0 31 -45q184 27 300 41.5t183 -16.5l-22 -18q-41 24 -215.5 4.5t-246.5 -32.5q-10 -24 -34.5 -57t-27 -75t31 -68.5t83.5 -17t204.5 97
t229 165.5t128.5 176q-50 -13 -135.5 -13t-196.5 10zM1598 996.5q10 0.5 12.5 -18.5t13.5 -27.5t23 -3.5t8 43q19 0 39 -39h-7l7 -13v-7q-17 0 -52 -39q-13 0 -19 7q-5 -23 -15 -23l-13 13l5 12q-56 -2 -56 20q34 7 40 24.5t5 34t9 17zM1499 956q13 1 19.5 -5.5t6.5 -26.5
q-23 7 -26 32zM1556 856l23 -9l29 9l84 -24l5 -15l-24 -2l-80 10l-41 -8l-26 15v-7l-20 7v15z" />
    <glyph glyph-name=".null" 
 />
    <glyph glyph-name="nonmarkingreturn" horiz-adv-x="375" 
 />
    <glyph glyph-name="space" unicode=" " horiz-adv-x="770" 
 />
    <glyph glyph-name="exclam" unicode="!" horiz-adv-x="1002" 
d="M1354 1156q-7 -58 -28 -93.5t-62 -88t-87.5 -82.5t-97.5 -92.5t-107.5 -88t-92.5 -47t-78 -89t-84.5 -79t-87 -34t-75 -7t27 120t135 140.5t135 106.5t131 124t133 91.5t118.5 89t86 53q25 0 34 -24zM192 -101l-16 36q43 59 78.5 82t57.5 74.5t47 93.5t68 49t76.5 -24
t50.5 -78.5t4.5 -86.5t-58.5 -64.5t-99.5 -50t-91 -29t-76.5 -4.5z" />
    <glyph glyph-name="quotedbl" unicode="&#x22;" horiz-adv-x="1030" 
d="M977 1269q42 -1 54.5 -32.5t-63.5 -118.5t-133.5 -119t-62.5 -61t-34 -43t-33.5 -30t-27.5 -31t-72 -17l-25 26q47 76 72.5 83t28 34t63.5 93t89 87t25 63t26 46t44 12t49 8zM851 817q-20 41 -17.5 67t41.5 54.5t107 90.5t94 119.5t115 96.5q103 -1 104 -37
q-34 -23 -42 -44.5t-25 -32t-26.5 -38t-57.5 -49.5t-70 -50.5t-23 -53t-34 -31.5t-63.5 -49.5t-102.5 -42.5z" />
    <glyph glyph-name="numbersign" unicode="#" horiz-adv-x="3337" 
d="M922 1128q173 17 278.5 29t178.5 94.5t151.5 158.5t66 108t-75 10.5t-211 -113.5t-388.5 -287zM2191 1204l111 2q101 86 43.5 77.5t-154.5 -79.5zM2029 1066q-197 -134 -276 -201.5t-73 -112t178.5 73t323.5 246.5zM2829 -17q-159 0 -321 169q-191 -68 -372 -105
t-266.5 -42t-139.5 37.5t-51 96t48.5 91t88.5 56.5t5.5 59t-158.5 10.5t-236 -83t-161 -53.5t-94 -56.5t-128.5 -109.5t-147.5 -32t-67 61t167 162q-199 -42 -300 -106t-210.5 -65t-134.5 56t37.5 148.5t259 246.5t433.5 442q-206 -6 -292.5 -45.5t-245.5 -196.5
t-244.5 -286t-96 -196t-85.5 -88q-81 38 -92 161q21 104 120.5 199.5t214.5 190.5t187 202q-61 14 -101 30t-35 50.5t75 55.5t169 54t326 220t416.5 287t316.5 100q81 -17 102 -75.5t-13.5 -123t-270.5 -326.5q186 20 415 30q175 120 301 194.5t206 88t112.5 -29.5
t13.5 -96.5t-94 -144.5q393 8 1038.5 -12.5t953 -54t662.5 -88.5q-6 -75 -158 -55t-436 47.5t-590 28t-590 17t-509.5 5.5t-343.5 -6t-212.5 -83t-255.5 -216.5t-385.5 -233t-251 -149t56.5 -13.5t249 65.5t219.5 13.5t62 -72.5t-34.5 -121t-71 -121.5t82 -38.5t306.5 51.5
t223.5 126.5t215 177.5t263 43.5t30 -108.5t-144.5 -120.5t-149.5 -68t-15.5 -53.5t146 -59.5t275.5 32.5t226 75t116.5 49.5t53.5 -36t-39.5 -75.5t-108 -45t-151.5 -62.5t-179.5 -55.5t-210.5 -22zM1780 1042q-129 -11 -245.5 -21t-198.5 -56t-248.5 -219.5t-315 -298
t-222.5 -171.5t-18 -55t216 68.5t309 128t271.5 140t172 230.5t279.5 254z" />
    <glyph glyph-name="dollar" unicode="$" horiz-adv-x="1859" 
d="M651 193q-125 69 -190.5 55.5t-69.5 -51t54.5 -60.5t205.5 56zM2082 1491q94 22 181 85.5t64.5 72t-66.5 -21.5t-179 -136zM1527 1022q160 169 216 241t-52.5 75t-321.5 81.5t-335.5 49.5t-170 -111t-35.5 -174t114 -149.5t233 -46.5t352 34zM1939 178
q-142 -104 -207.5 -139t-165.5 -72.5t-233 -47.5q-172 4 -265.5 35.5t-159 68t-110.5 59t-117.5 -22.5t-164 -55t-153 5.5t-108.5 47.5t-55 138q14 84 52 124.5t91.5 60t119 18.5t135 -25.5t117.5 -45t117.5 46t181.5 149.5t433 390q-352 -77 -479.5 -43.5t-205 113.5
t-102 201t35 224t159 159.5t199.5 72t203.5 -1t238 -68.5t234.5 -62.5t172 16t124 83t107.5 90.5t97.5 50t99 17q49 -1 98.5 -18t50.5 -67q-2 -64 -61 -126t-134 -103t-150.5 -67.5t-122 -49t-100.5 -88t-181 -235.5q84 -4 138 -29t99 -139q-55 -72 -117.5 7t-203.5 52
q-455 -420 -570.5 -504t-164.5 -172q271 -143 394.5 -156t242.5 7.5t331 154.5z" />
    <glyph glyph-name="percent" unicode="%" horiz-adv-x="2403" 
d="M761 1114q101 137 92.5 195.5t-49 42t-141.5 -55.5t-197 -123t-51 -126t113 -66.5t233 133.5zM1716 363q153 183 77 188t-117.5 -52t-136 -140.5t-121.5 -118.5t19 -65.5t107.5 -14.5t171.5 203zM1773 1734q69 -11 53.5 -44t-94 -119t-146 -177.5t-131 -183t-160 -275.5
t-190.5 -305t-240 -351.5t-94 -239.5q298 227 387.5 327t245 207t251.5 138.5t148 19.5t99 -65.5t34.5 -94t5 -96.5t105 -33t112.5 -13q-11 -57 -97.5 -85.5t-186.5 2.5q-111 -167 -230 -254.5t-204 -91.5q-80 7 -136 46.5t-46.5 121t97.5 191.5q-295 -209 -473 -424
t-325 -217q-69 11 -75.5 75.5t128.5 306t335 518t288.5 414.5t242.5 365q-121 -53 -253.5 -131t-194 -65t-75 -25.5t-113.5 -138t-188 -169.5t-164.5 -60.5t-157 35t-107.5 109.5q0 37 8 92.5t75 125t137.5 123.5t165 125.5t195.5 85.5t134 -19t65.5 -82.5t76.5 -55t202 70
t279.5 185.5t210.5 131z" />
    <glyph glyph-name="ampersand" unicode="&#x26;" horiz-adv-x="1541" 
d="M588 416q68 31 121 18.5t63.5 -89t-37 -159.5t-145 -116.5t-119 -72t-68.5 -48.5q-63 8 -92 44t-33 94q2 46 41 77.5t48.5 108t41.5 151.5t40 162.5t-5.5 135.5t22 88.5t85 40.5t68.5 -56t119 -108.5t282.5 -65t306 29.5t113 64t-51.5 36.5t-48 47t11.5 65t87.5 37.5
q71 -8 95 -30.5t32 -64.5t10 -98q-6 -47 -57.5 -97.5t-143 -79.5t-226 -36t-267 17t-267.5 119q-29 -5 -35 -69.5t8 -145.5zM586 225q53 15 79 43.5t12 43.5t-31.5 -7.5t-46 -37.5t-13.5 -42z" />
    <glyph glyph-name="quotesingle" unicode="'" horiz-adv-x="1088" 
d="M1153 1216q-4 -32 -26 -54l-41 -41t-58 -54t-75 -70t-64 -52t-18 -34t-21 -31t-36 -30t-41 -32q-6 -2 -16 -4h-54q-20 2 -26 10v4q0 6 12 14q24 18 32 40t35 29t27 41q96 90 118 121t53 43t33 35t5 45t37 44q14 8 36 10q12 4 46 4q28 -4 38 -20z" />
    <glyph glyph-name="parenleft" unicode="(" horiz-adv-x="882" 
d="M610 -270q-102 16 -152 187t-60 561q46 384 113 569t173 388t305 417t243 239t90 25q96 -12 112 -68q2 -12 2 -22q0 -42 -44 -74q-56 -40 -206 -151t-303 -321t-251 -506t-99 -535t18 -380t59 -329z" />
    <glyph glyph-name="parenright" unicode=")" horiz-adv-x="1090" 
d="M108 -376q-152 12 -216 138q96 138 162 70t190 93t243 382t179 459t69 488t-13 449t-64 439q124 -100 153 -240t77 -560q-20 -358 -64 -545t-145 -430t-269 -480t-302 -263z" />
    <glyph glyph-name="asterisk" unicode="*" horiz-adv-x="1246" 
d="M797 1467l253 215l4 -140l-173 -152q118 -42 256 -103l51 -41l-73 -52q-225 64 -271 80q3 -59 13.5 -126t23 -96.5t-113.5 -119.5q-43 17 -35 321q-159 -164 -179 -184.5t-91 1.5q75 158 202 266q-202 28 -237.5 25t-55.5 63l26 21l109 13l127 -5l67 -5q-22 143 -15 269
l99 17z" />
    <glyph glyph-name="plus" unicode="+" horiz-adv-x="2568" 
d="M1160 1431q55 -21 60 -72q-4 -52 -24 -77t-77 -28q-48 3 -63 20t-18 57.5t13.5 66t54.5 35.5zM-107 134q97 77 134.5 140.5t118.5 159t142 119t105 5t61 -52.5t-3.5 -69.5t-61.5 -71t-60 -94.5t48.5 -95t318 127t408.5 195t208.5 -53t147 -100t170 -59.5t182 -5t176.5 29
t128.5 -2t104 85t95.5 153t121.5 117.5t136.5 41q49 -6 84 -35.5t35 -72.5q0 -52 -18.5 -91t-131 -103.5t-175 -118.5t-87 -102.5t-74.5 -79.5t-170.5 -197t-161.5 -191t-64 -87.5t-119.5 -133.5t-346.5 -345t-404 -374.5t-270 -106.5q-152 2 -240.5 68t-127.5 207
t-21 263.5t-2.5 172.5t-5 102t85 64.5t107.5 -39.5t17.5 -108t-57 -134t-11 -126.5t14 -115.5t50 -145t168 -75.5t178 45t80 88t161 140.5t231.5 215.5t230 252.5t323.5 332t167 240t-46 63.5t-185.5 -3.5t-256 24.5t-157.5 21.5t-95.5 -6.5t-116.5 -8.5t-136.5 55
t-321 -78.5t-367 -176t-157.5 19.5t-63.5 123q-102 -56 -156 -66t-68 54z" />
    <glyph glyph-name="comma" unicode="," horiz-adv-x="612" 
d="M204 -116q124 100 156 139t64 47t45 40t26 63t51 51q18 8 34 8q18 0 40 -10q22 -14 22 -40q0 -14 -6 -28q-18 -46 -46 -71t-53 -48t-75 -61t-96 -78t-77 -55t-31 -42t-33 -38t-44 -33t-47 -32q-8 -4 -18 -4q-24 0 -44 18q-14 12 -14 22q0 12 16 20q30 20 46 51t42 31
t42 50z" />
    <glyph glyph-name="hyphen" unicode="-" horiz-adv-x="1252" 
d="M531 397q-70 1 -102 2t-59 18t-66.5 13.5t-47.5 13.5t-8 28q0 12 20 28.5t65.5 23t108 0t108 3t77.5 17t63 -3t59 -13.5t79 4.5t71.5 3t56.5 0t50 13.5t33 10q15 0 31.5 -19t27.5 -20.5t22 -22.5q-1 -18 -15 -26t-33.5 -25.5t-47 -11t-53.5 -5.5t-89.5 -5.5t-91.5 -2
t-107 -15t-152 -8.5z" />
    <glyph glyph-name="hyphen" unicode="&#x2212;" horiz-adv-x="1252" 
d="M531 397q-70 1 -102 2t-59 18t-66.5 13.5t-47.5 13.5t-8 28q0 12 20 28.5t65.5 23t108 0t108 3t77.5 17t63 -3t59 -13.5t79 4.5t71.5 3t56.5 0t50 13.5t33 10q15 0 31.5 -19t27.5 -20.5t22 -22.5q-1 -18 -15 -26t-33.5 -25.5t-47 -11t-53.5 -5.5t-89.5 -5.5t-91.5 -2
t-107 -15t-152 -8.5z" />
    <glyph glyph-name="hyphen" unicode="&#x2010;" horiz-adv-x="1252" 
d="M531 397q-70 1 -102 2t-59 18t-66.5 13.5t-47.5 13.5t-8 28q0 12 20 28.5t65.5 23t108 0t108 3t77.5 17t63 -3t59 -13.5t79 4.5t71.5 3t56.5 0t50 13.5t33 10q15 0 31.5 -19t27.5 -20.5t22 -22.5q-1 -18 -15 -26t-33.5 -25.5t-47 -11t-53.5 -5.5t-89.5 -5.5t-91.5 -2
t-107 -15t-152 -8.5z" />
    <glyph glyph-name="hyphen" unicode="&#xad;" horiz-adv-x="1252" 
d="M531 397q-70 1 -102 2t-59 18t-66.5 13.5t-47.5 13.5t-8 28q0 12 20 28.5t65.5 23t108 0t108 3t77.5 17t63 -3t59 -13.5t79 4.5t71.5 3t56.5 0t50 13.5t33 10q15 0 31.5 -19t27.5 -20.5t22 -22.5q-1 -18 -15 -26t-33.5 -25.5t-47 -11t-53.5 -5.5t-89.5 -5.5t-91.5 -2
t-107 -15t-152 -8.5z" />
    <glyph glyph-name="period" unicode="." horiz-adv-x="692" 
d="M236 76q46 56 75 80t75 24t76 -26q30 -22 30 -66v-10q-4 -50 -32 -65t-55 -27t-53 -42q-18 -22 -46 -22q-14 0 -47 9t-42 33t-9 36q0 32 28 76z" />
    <glyph glyph-name="slash" unicode="/" horiz-adv-x="1219" 
d="M1674 2055q68 -6 98.5 -45t31.5 -80q-53 -78 -118.5 -180.5t-225 -331.5t-347 -469t-470 -561.5t-360.5 -421t-113.5 -120t-76.5 -20.5q-59 6 -61 57q2 50 112.5 157.5t401 413.5t554.5 686t339 529t117.5 233t57.5 115t60 38z" />
    <glyph glyph-name="zero" unicode="0" horiz-adv-x="1090" 
d="M694 724q-170 -168 -241 -247t-111 -147.5t-75 -130t4 -81.5t143 29t205 128t193 154t93 148t75 137t113 139t28 133t-62 48t-103 -65t-262 -245zM1394 1044q0 -46 -27 -134t-154 -221t-316 -306t-343 -261t-266 -114q-34 -8 -62 -8q-68 0 -104 48q-24 28 -24 74
q0 50 34 124q60 134 214 300t294 290t270 218t300 144l62 -4q74 -12 98 -61t24 -89z" />
    <glyph glyph-name="one" unicode="1" horiz-adv-x="778" 
d="M82 70q10 70 61 87t83 100t92 147t144 140t167 152t105 99t13 58t78 89t170 101t159 153l44 2q32 -20 40 -80q0 -38 -40 -74q-46 -42 -112 -109t-166 -177t-198 -200t-166 -159t-105 -109t-7 -100t-61 -111t-150 -65t-83 -14q-34 0 -51 18t-17 52z" />
    <glyph glyph-name="two" unicode="2" horiz-adv-x="1434" 
d="M130 94q0 6 4 10q30 6 66 22t87 52t103 47t112 4t103 16t133 81t221 136t218 163t152 170t64 134t-70.5 75t-146 18.5t-193.5 -33t-207 -69.5t-113 -99t7 -86t90 -28t176 35q52 -50 51 -81t-76 -59t-164 -33t-182 12t-114 67t-16 98t39 102t126 117t217 108t233 67
t272 34q130 -4 188 -59t58 -121q-6 -88 -64 -192t-204 -217t-271 -199t-157 -114t-34 -70t37 -81t79 -45t53 -40t-14 -53t-83 -21h-6q-56 0 -116 42q-66 44 -115 65t-108 -6t-126 -56t-141 -21t-110 27t-47 41t-11 40z" />
    <glyph glyph-name="three" unicode="3" horiz-adv-x="1068" 
d="M1110 638q-10 -78 -94 -198t-210 -241t-269 -207t-215 -109t-158 -29q-94 2 -136 36t-50 110q4 60 41 103t110 56t73 -56t61 -86t155 31t173 111t144 141t110 147t61 145t-45 98t-124 37t-94 31t-28 70t50 78t100 43t71 58t-15 57t-116 -9t-180 -54t-121 0t5 41t137 54
t174 64t162 38q100 -4 135 -30t35 -87t-60 -113t-99 -98t58 -75t125 -58t34 -99z" />
    <glyph glyph-name="four" unicode="4" horiz-adv-x="1170" 
d="M554 -46q-38 0 -64 40q-32 46 -14 98t42 97t-6 55t-86 7t-117 -23t-125 -4t-80 70q-4 10 -4 20q0 38 50 58q60 30 116 89t212 254t247 317t149 148q46 18 78 18h14q32 -6 47 -46t-46 -112t-167 -187t-230 -249t-152 -176t38 -48t119 -18t77 34t57 101t57 79t51 27t71 -19
t26 -73t-44 -116t54 -70t150 20t104 16t52 -47q4 -8 4 -16q0 -30 -42 -60q-54 -38 -136 -51t-176 17t-151 -17t-83 -132t-74 -97q-10 -4 -18 -4z" />
    <glyph glyph-name="five" unicode="5" horiz-adv-x="1178" 
d="M782 976q-82 -86 -142 -128t-114 -80t-146 -106q140 -22 203 -53t128 -77t96 -101t36 -140t-40 -140t-118 -93t-281 -58h-110q-124 38 -137 98t-7 86t41 63t78 27t60 -50t80 -46t124 11t87 52t19 98t-49 124t-105 87t-109 16t-107 -32t-109 5t-54 103q22 50 139 124
t204 156t123 122t183 42t240 8t185 21t156 29t184 54q120 -18 136 -106q-86 -62 -184 -81t-228 -32t-227 -6t-235 3z" />
    <glyph glyph-name="six" unicode="6" horiz-adv-x="880" 
d="M916 1222q66 -12 100 -40q-2 -44 -56 -86t-60 -71t-59 -105t-132 -154t-112 -159t-62 -72t-87 -2t-87 -44t-60 -83t-33 -143t36 -116t101 -18t100 29t65 61t40 74t20 91t-33 86t-17 71t67 37t89 -21t53 -68t12 -91t-13 -111t-72 -131t-111 -94t-129 -47q-67 -14 -130 -14
h-8q-66 1 -123 23t-82 75t-29 165q18 112 55 167t110 146t150 170t148 150t115 109t46 63t20 52t51 53t59 35t58 13z" />
    <glyph glyph-name="seven" unicode="7" horiz-adv-x="898" 
d="M-100 -434q40 56 169 192t277 354t221 337t148 214t152 173t98 104t-30 23t-91 20t-94 27t-97 -29t-89 -69t-89 -5t-39 78t38 91t78 68t83 34t94 -13t101 -54t104 -25t116 2t118 32t85 54t49 24q26 -2 43 -12t29 -24t20 -38q-6 -16 -31 -51t-72 -66t-90 -63t-114 -99
t-147 -150t-147 -176t-178 -276t-213 -358t-183 -270t-104 -152t-77 -63q-96 10 -138 30t-42 56q4 28 42 80z" />
    <glyph glyph-name="eight" unicode="8" horiz-adv-x="1250" 
d="M440 430q-100 -158 -108 -207t29 -86t74 -26t76 33t76 68t72 108t35 114t-9 89t-35 41t-63 -8t-147 -126zM102 214q0 62 20 109t66 99t104 105t113 84t106 60t78 44t46 43t26 61t0 96t5 100t49 78t85 64t154 35q92 -16 152 -56t116 -100t72 -170q-14 -98 -65 -174
t-96 -109t-72 -82t-75 -64t-74 3t-33 60t11 59t59 45t82 73t69 89t34 94t-23 91t-67 69t-87 28t-78 -24t-50 -50t-25 -103t6 -118t30 -94t28 -125t-2 -143t-46 -160t-109 -144t-141 -77q-40 -12 -90 -12q-36 0 -74 4q-98 14 -158 44t-103 68t-43 100z" />
    <glyph glyph-name="nine" unicode="9" horiz-adv-x="1054" 
d="M706 1018q-18 -60 -53 -87t-33 -63t31 -73t101 -49t124 -3t75 38t32 75t-1 105t-71 81t-104 12t-101 -36zM803 1191q93 -1 166 -36t108 -93t41 -182q-16 -166 -89 -270t-177 -209t-324 -279t-376 -234t-292 -78q-58 10 -66 70q20 54 90 64t166 46t210 115t175 132
t156 141t133 146t43 84t-45 28t-105 -21t-88 -18t-74 41t-51 111t2 156t73 158t146 103q82 25 178 25z" />
    <glyph glyph-name="colon" unicode=":" horiz-adv-x="610" 
d="M558 730q52 -22 90 -62q-6 -76 -24 -85t-23 -33t-24 -39t-64 -14t-64 44t-18 85t30 71t97 33zM234 116q58 116 111 111t83 -32t24 -84t-50 -65t-98 -42q-54 28 -70 112z" />
    <glyph glyph-name="semicolon" unicode=";" horiz-adv-x="1046" 
d="M746 440q-18 70 -4 114t42 66q26 18 58 18h8q36 -2 62 -26t36 -52q2 -10 2 -22q0 -20 -12 -44q-18 -36 -33 -42t-28 -30t-27 -43t-52 0t-52 61zM246 -262q64 64 95 85t45 38t-6 24t-21 25t20 35t32 24t13 32t30 52t64 25t56 -24t31 -57t-10 -71t-38 -46t-37 -44t-24 -53
t-30 -26t-35 -38t-41 -65t-68 -64q-22 -18 -44 -18q-12 0 -26 8q-34 18 -48 50q-8 18 -8 32q0 12 4 20q10 20 46 56z" />
    <glyph glyph-name="less" unicode="&#x3c;" horiz-adv-x="4817" 
d="M1613 -40q-125 10 -142.5 67.5t32.5 142.5t197.5 252.5t257.5 307.5q-205 -155 -372.5 -267.5t-477.5 -272.5t-512.5 -185t-285 0t-97.5 130q5 115 40 187.5t105 152.5t142.5 70t92.5 -70t-32.5 -87.5t-77.5 -90t17.5 -95t162.5 -15t380 137.5t590 332.5t482.5 382.5
t290 337.5t190 195t92.5 27.5q45 0 85 -20t40 -80t-77.5 -112.5t-182.5 -150t-345 -405t-455 -622.5q75 -20 300 110t360 235t280 275t235 220t147.5 50t75 -30t-42.5 -120t-255 -227.5t-297.5 -252.5t-130 -190t32.5 -72.5t232.5 72.5t480 275t525 445t232.5 320t77.5 110
t90 12.5t40 -57.5t-5 -115t-80 -125t-52.5 -92.5t55 -65t95 -7.5t122.5 57.5t147.5 70t95 -37.5q-10 -80 -100 -127.5t-182.5 -85t-172.5 -37.5t-115 25t-37.5 67.5t-47.5 47.5q-165 -195 -590 -487.5t-597.5 -360t-280 -90t-165 0t-65 85t72.5 197.5q-270 -190 -417.5 -265
t-202.5 -80zM3778 245q65 -20 95 -95q0 -50 -20 -82.5t-80 -57.5q-80 10 -105 37.5t-20 87.5q-5 55 27.5 77.5t102.5 32.5z" />
    <glyph glyph-name="equal" unicode="=" horiz-adv-x="1989" 
d="M688 443l-85 73q-28 -90 -112.5 -110t-160.5 -39.5t-82 -84.5t76 -82t183.5 59t180.5 184zM790 550q135 124 98.5 259.5t-118.5 127t-99 -116t119 -270.5zM1455 -42q-73 22 -79 87t67.5 129.5t163.5 79t152.5 51t39.5 84.5t-90.5 31t-250.5 -59.5t-332.5 -39.5
t-245.5 25.5t-141 11.5q-136 -147 -237.5 -237t-222.5 -104t-188.5 19.5t-90.5 140.5q6 102 79 195t191.5 121t225.5 53.5t53.5 90.5t-64.5 166.5t25.5 172t98.5 96t169 30.5q124 -16 194.5 -103.5t73.5 -211.5t-62 -189t-99 -116q91 -51 237.5 -51t338 39.5t327 70.5
t201.5 -8.5t66 -101.5q0 -67 -108.5 -140.5t-204 -158t-152 -129.5t-135.5 -45z" />
    <glyph glyph-name="greater" unicode="&#x3e;" horiz-adv-x="4889" 
d="M105 181q15 130 97 228.5t164.5 86t103 -67t-36 -117t-56.5 -119t68.5 -70.5t151.5 6t256.5 138.5t390 365t386 442t321 334t220 172.5t99.5 34q54 0 100 -71.5t15 -160t-113 -189.5t-277.5 -302.5t-359 -409t-150.5 -220t87.5 29.5t207.5 138.5t271.5 228.5t224 220.5
t145 94.5t97 -50.5t-6.5 -138.5t-132 -176.5t-239 -232.5t-113 -176t146 11t294 190q63 -38 -19 -132.5t-264.5 -195t-258.5 -60.5t-82 132.5t267 381.5q-56 -19 -170.5 -110.5t-202.5 -173t-201.5 -132t-151 0t-62.5 113.5t84.5 198.5t264 302t304 339t163.5 220.5
t-41.5 36.5t-176.5 -113.5t-221.5 -240.5t-343 -423t-440.5 -413.5t-327.5 -148.5t-255.5 -19.5q-219 26 -227 219zM2900 621q-45 7 -60 46t48 125t143.5 123.5t110 130t95 152t147.5 75t188 -27.5t72 -172.5t-143.5 -207t-76 -88.5t225.5 47t321 149.5t244 126.5t208.5 113
t154.5 139.5t108 82t98.5 -2t59.5 -93.5q-18 -36 -115 -90.5t-106.5 -97.5t-120 -109.5t-136 -145t-97.5 -137.5t-122.5 -129.5t-124 -109t-158.5 -27t-109 84.5t-2 108t-15 35t-147 -33t-171.5 -72.5t-130.5 -37.5t-89.5 30t-1.5 95t80 132t135.5 139.5t47 106t-72.5 26
t-93.5 -100.5t-149 -140t-158 -126.5t-87.5 -118.5zM3912.5 757q11.5 -39 93.5 12.5t130.5 124.5t-31.5 28.5t-142 -85.5t-50.5 -80zM3321 94q-5 51 25 72t95 30q61 -18 89 -88q0 -47 -18.5 -77t-74.5 -53q-75 10 -98 35t-18 81z" />
    <glyph glyph-name="question" unicode="?" horiz-adv-x="1490" 
d="M1782 1120q0 -73 -28.5 -139.5t-81 -120.5t-151 -93t-203 -48t-177 -14.5t-103 -49.5t-81.5 -91.5t-106 -73.5t-109 23q113 83 124 125.5t5.5 88t15 89.5t59 60t92.5 2t118.5 -35t171.5 -4.5t198.5 68.5t98.5 129.5t-18.5 114t-120 89.5t-158.5 39.5t-65.5 -62t21.5 -66
t-11 -46t-96.5 25.5t-61 116t59.5 119t173 57q176 -1 198 -68t57.5 -40t104 -24t74.5 -171zM461 -46q-88 26 -92 70q0 36 36 65t105 55t120 15t58 -69t-69 -97t-158 -39z" />
    <glyph glyph-name="at" unicode="@" horiz-adv-x="2194" 
d="M1403 674q46 100 31 135.5t-70.5 30t-120 -39t-130 -88t-73.5 -98t25 -74t65 -3.5t91.5 71t181.5 66zM2211 978q0 -149 -147 -319.5t-266.5 -232t-221 -65t-149 51t-75.5 105.5q-73 -19 -119 -57t-111 -47.5t-134 -5.5t-113.5 33t-25.5 126.5t104 189.5t192 147t221 57
q104 -3 140 -27t47.5 -55t4 -57t33.5 -30t50.5 -47t-34.5 -90t-65 -65.5t-20 -65t92.5 -49t226 115t198.5 284.5t1 284t-226.5 142.5t-328 -15.5t-454 -238t-405.5 -383t-134 -312.5t83.5 -195t234.5 -93t326 8t271 88t182 64t94.5 -50.5t-132.5 -75.5t-227 -75t-452 -83.5
q-297 12 -431.5 87t-134.5 195q0 148 103.5 331t217.5 303t296.5 254.5t395 215t324.5 99.5t254 19q170 -10 242 -113t72 -194v-159z" />
    <glyph glyph-name="A" unicode="A" horiz-adv-x="2108" 
d="M1627 786q127 -10 191 0t99 28t84 68t121.5 152.5t176 207t178.5 164.5t80 104t-60 18t-125 -79t-200 -158t-255 -207t-290 -298zM1786 622q-170 0 -368 -20q-246 -200 -429 -335t-273 -175t-155 -65t-179 -21q-76 26 -113 68t-63 178q6 114 23 164t45 110t88 118t110 63
t80 -33t0 -98t-85 -100t-63 -117t22 -125t104.5 -44t222.5 84.5t280.5 171t218.5 166.5q-290 10 -295 55t37 70t422 37q216 182 456 395t392 335t312 252h60q66 -34 111 -87t-23 -148t-201.5 -227t-430.5 -498q466 38 1160 50l40 -44l-10 -30q-50 -60 -265 -60t-418 -10
t-385 -20t-262 -30q-170 -156 -310 -298t-148 -165t91 -20t250 24t293.5 102t180.5 27t-142.5 -146t-315.5 -117t-205 -41t-164 -22q-137 17 -151.5 76.5t10.5 114.5t153 165t292 270z" />
    <glyph glyph-name="B" unicode="B" horiz-adv-x="2452" 
d="M1760 1008q132 68 223 109t169 69t174 46t150 -4t76 -102q-10 -54 -56 -121t-88 -101t-86 -53t16 -76t77 -143t-20 -184t-132 -202t-196 -177t-228 -136t-195 -69q-90 18 -117 157t-2 205t88 82t104 -22t2 -90t-23 -99t83 -29t157 75t155 113t112 119t53 151t-35 155
t-95 73t-88 24t4 56t92 45t116 63t60 113t-69 45t-184 -69t-227 -114t-186 -98t-196 -129t-277 -230t-211 -196t-126 -98t-132 -104t-98 -56t-73 22t-38 59t76 123t195 174t274 196t275 183t171 114t142 145t182 205t173 180t101 145t3 79t-119 -48t-283 -199t-300 -220
t-243 -199t-256 -228t-199 -207t-119 -141t-117 -99t-122 -75t-121 15l12 82q94 58 173 101t165 148t243 253t287 258t259 205t249 186t237 173t189 123t108 43q78 -8 106 -49t44 -79t-3 -85t-79 -120t-145 -148t-151 -135t-85 -89t-55 -89z" />
    <glyph glyph-name="C" unicode="C" horiz-adv-x="998" 
d="M196 -112v64q0 128 54 280t109 264t161 295t237 332t265 274t227 179t187 66l60 -6q44 -16 69 -42t43 -73t0 -145l-24 -74q-74 -136 -170 -224t-412 -242q-64 26 -59 59t74 68t154 87t164 139t103 154t20 91t-23 31t-88 -20t-169 -111t-214 -212t-207 -260t-174 -270
t-148 -316t-72 -274t16 -183t63 -162t129 -144t199 -110t213 -45t205 9t228 56t184 86t54 76t2 71t36 48t57 2t77 -42q-4 -72 -26 -118t-136 -128t-254 -138t-390 -84q-166 8 -233 30t-135 49t-150 82t-164 165t-111 193t-31 173z" />
    <glyph glyph-name="D" unicode="D" horiz-adv-x="2066" 
d="M1235 857q149 171 252 292t211 301q-128 104 -202 132t-137 21t-123 -52t-77 -133t-2.5 -224t78.5 -337zM1316 712q110 -266 326 -400q164 158 232 349t48.5 371t-90.5 281q-164 -213 -248 -308t-268 -293zM1027 418q-55 -48 -131 -119t-48 -131t116 -117t187 -53t184 53
t187 147q-98 62 -171 144t-159 246q-110 -122 -165 -170zM1950 1792q98 -44 86 -122.5t-107 -227.5q123 -162 143 -369t-45 -434t-253 -421q105 -45 199 -30.5t144.5 47.5t78.5 -47q-128 -112 -261 -125t-265 43q-90 -66 -162 -126t-141 -105t-149 -61q-84 2 -176 20
t-195 91t-144 141t-100 19t-130 -72t-138 -18t-121 65l-8 32q10 60 65 123t136 100t182 23t201 63t316 326q-69 187 -87.5 323.5t-16.5 236t21 162.5t57 127t125 115t165 58t167 -26t227 -144q74 100 105 150.5t81 62.5z" />
    <glyph glyph-name="E" unicode="E" horiz-adv-x="1398" 
d="M1604 1310q-26 -98 -65 -139t-90 -47t-65 29t-7 53t41 59t-5 90t-108 74t-135 16t-103 -45t-43 -96t25 -129t77 -117t90 -93t47 -82t-29 -76t-109 -65t-183 -100t-213 -126t-174 -103t-95 -120t24 -122t146 -70t185 -13t174 25t175 55t312 94q6 -100 -85 -140t-184 -85
t-211 -82t-284 -47q-130 6 -209 18t-152 56t-108 108t-43 144q4 72 43 147t126 151t218 125t228 103t148 101t34 101t-87 105t-88 130t-7 138t27 101t62 77t110 58t192 31l116 -8q164 -44 218 -112t64 -172z" />
    <glyph glyph-name="F" unicode="F" horiz-adv-x="1600" 
d="M2290 1442q142 -18 233 5t75 88t-77 74t-112 -32t-119 -135zM1332 586q-250 -214 -397 -310t-325 -189t-300 -101q-98 10 -134 66t-42 218q22 136 75 211t140 94t136 -30t37 -105t-96 -58t-116 -66t2 -115t123 -18t268 135t419 292q-98 0 -132 11t-38 37t64 57t122 31
h150q226 218 622 568q-336 -20 -498 -13t-235 24t-136 8t-81 -63t21 -102t112 -66t70 -86t-71 -90t-188 38q-84 120 -107 200t0 174t61 128t87 49t154 -12t233 -34t272 4t295 19t241 68t177 124t207 102q106 -16 147 -38t83 -81t52 -167q-22 -122 -114 -158t-232 -45
t-332 21q-260 -218 -433 -373t-197 -199q310 -24 332 -50t38 -78l-46 -46z" />
    <glyph glyph-name="G" unicode="G" horiz-adv-x="1580" 
d="M866 1062q240 -6 365 57t197 151t96 168t-34 126.5t-173 -7.5t-238 -209.5t-213 -285.5zM794 896q-181 -142 -271.5 -328t-110.5 -285t96 -94t392 164.5t356 203t146 52.5t96 -26t-50 -161t-204 -239t-305 -319t-264 -415t161 84t376 392t558 437q-72 -192 -158 -250
t-317 -248t-345 -351t-216.5 -292t-199.5 -131q-90 0 -124 69t-4 184t123 248t215 286t264 315t-21.5 52t-282 -174t-236.5 -65t-193 43t-75 156q0 127 103 308.5t283 409.5q-182 66 -164 139t266 49q326 403 474 523.5t290 132.5q156 -9 212 -68.5t62 -123.5
q-22 -200 -178 -368t-316 -232t-438 -78z" />
    <glyph glyph-name="H" unicode="H" horiz-adv-x="1996" 
d="M1374 1060q94 74 146 131t2 62t-99 2t-124 -19t-113 -41t-96 -69t-74 -102t6 -113t49 -82t55 -8t77 71t171 168zM1520 566q-144 -6 -201 -21t-107 -19t-85 9t-81 -3t-90 -68t-84 -103t-83 -105t-116 -117t-161 -96t-166 -22t-108 71t-36 210q54 110 97 140t87 30t55 -40
t-10 -91t37 -70t121 33t115 117t38 115t17 87t56 14t72 -9t61 52t2 80t-28 83t-35 80t-8 96t68 118t126 108t187 80t268 56t251 74t169 84t99 88t101 115q84 -16 114 -63t38 -85t-39 -102t-121 -88t-134 -33t-126 -42t-133 -94t-147 -139t-164 -150t-123 -112t-54 -89
t66 -65t150 -16t127 12t137 77t140 139t124 154t132 163t118 107t83 25t44 -71q-122 -146 -201 -241t-162 -175t-108 -128t52 -71t152 -37t101 -59t-34 -145q-202 130 -295 135t-142 -7t-90 -54t-45 -115t-42 -127t-80 -108t-100 -119t-136 -87q-50 26 -64 54t5 97t57 138
t82 108t84 56t63 50t43 131z" />
    <glyph glyph-name="I" unicode="I" horiz-adv-x="1450" 
d="M1588 890q100 112 147 206t39 188t-77 134t-171 39t-191 -56t-137 -143t-57 -181t83 -142t364 -45zM1496 768q-186 -4 -280 15t-150 75t-66 128t6 152t57 156t138 168t259 128l92 4q112 -8 187 -44t128 -97t69 -191q0 -72 -16 -119t-87 -166t-261 -316t-376 -346
t-333 -221t-249 -92l-98 -2q-86 2 -149 27t-107 97t-56 160v62q18 126 70 179t156 73q94 -28 100 -102q-18 -80 -88 -95t-70 -101t76 -120t193 -9t220 75t196 119t178 148t261 255z" />
    <glyph glyph-name="J" unicode="J" horiz-adv-x="1288" 
d="M1444 1026q0 50 -7 81t29 76t136 23q36 68 99 152t120 145t48 74t-54 -12t-118 -81t-154 -115t-167 -140t-179 -197t-142 -188t-34 -99t56 -22t84 27t77 56t206 220zM264 -338q-94 8 -165 -10t-150 -54t-176 -93t-208 -136t-187 -144t-194 -198t-165 -199t-4 -84t90 -14
t116 47t181 122t259 197t469 412q-8 104 134 154zM-1188 -1284q10 74 71 148t160 178t208 199t224 183t244 167t208 111t156 52t127 25t146 5q148 140 286 288t215 243t142 152t88 88t9 41t-48 -2t-84 -10t-77 36t-36 75t0 100t52 120t251 262t353 312t231 156t169 79
t116 39t49 5q22 0 43 -6t21 -48q-6 -42 -42 -101t-88 -111t-99 -97t-160 -194t-267 -337t-337 -416t-350 -408t-208 -221t-113 -117q24 -128 -10 -186t-83 -76t-93 -14t-78 10q-138 -138 -409 -366t-418 -323t-219 -121t-154 -32q-94 4 -135 28t-61 84z" />
    <glyph glyph-name="K" unicode="K" horiz-adv-x="1628" 
d="M1909 1696q125 -20 150 -99.5t-66.5 -128t-177 -39.5t-151.5 -37.5t-199 -249t-225.5 -269.5t-71 -98t91.5 -18t615 191q-81 63 -59 92t165 -39q125 64 202 36.5t83 -103.5q-14 -95 -99 -115.5t-215 56.5q-184 -82 -337.5 -143.5t-271 -93.5t-86 -101t18.5 -183
t-106 -390t-95 -353.5t46.5 -123t120 -30.5t140 45t105 14t33 -64t-88.5 -85t-239 -43q-132 3 -207 72t-84.5 201.5t83.5 383.5t100.5 381t-12.5 200t-110.5 -10.5t-250.5 -249.5t-184 -242.5t-111 -71.5t-123.5 -19t-64.5 -7t-30 72q52 98 52 125t35 59t120.5 34t254 188
t392.5 445t284 336t-28 116t-176.5 44t-152 -10t-79.5 -49t-3.5 -72t4 -76t-66.5 -36t-74 85t-10 125t0 78t-15 55t15 56t47 45t57 -1t128 -49t254.5 -58.5t270 17t160.5 93.5t97 83t145 29z" />
    <glyph glyph-name="L" unicode="L" horiz-adv-x="1968" 
d="M2554 1540q-126 -80 -216 -158t-169 -164t-123 -145t46 -28t203 109t175 141t84 114t30 80t-30 51zM788 198q-172 146 -231 165t-123 0t-61 -70t47 -87t98 -53t114 -15t156 60zM1994 216l40 -64q-108 -100 -174 -140t-136 -65t-280 -53h-136q-218 36 -296 85t-161 55
t-159 -16t-143 -17t-142 28t-130 84t-73 195q20 98 54 139t91 70t129 33t131 -16t123 -84t93 -98t64 -60t133 13t183 107t171 144t238 232q-76 -6 -125 3t-82 36t-51 67t-17 82t31 93t77 86t100 49t97 4t48 -79t-81 -83t-92 -52t46 -62t104 -14t93 54t80 107t111 150
t163 182t202 185t177 131t141 59h42q58 -8 103 -48t57 -140l-2 -58q-20 -66 -71 -150t-233 -258q-196 -146 -324 -194t-236 -91t-152 -61t-127 -120t-241 -247t-370 -259q118 -92 217 -103t201 -4t193 30t149 47t152 86z" />
    <glyph glyph-name="M" unicode="M" horiz-adv-x="2958" 
d="M218 238q18 112 62 168t102 83t93 24t35 -38t-51 -98t-40 -116t67 -64t175 22t292 115t364 234t360 333t369 347t333 271t265 235l48 44q56 -28 82 -60t28 -72t-42 -88t-130 -157t-175 -220t-152 -219t-111 -194t-97 -169t-104 -178t94 16t263 194t197 152t213 174
t220 171t151 102t120 65t104 26t51 -67v-38q-70 -38 -144 -80t-156 -105t-165 -146t-172 -201t-159 -226t-89 -152t-34 -110t69 -59t158 24t130 38t106 48t80 -69q-18 -58 -88 -80t-173 -53t-203 -48t-274 -27q-70 16 -95 52t13 138t105 178t178 194t15 54t-178 -124
t-193 -130t-219 -162t-178 -121t-109 -1t-42 83t32 106t99 120t133 190t143 226t147 217t111 167t69 111t-14 27t-206 -181t-282 -276t-330 -312t-395 -290t-331 -159t-285 -101l-80 2q-104 40 -140 96t-40 144z" />
    <glyph glyph-name="N" unicode="N" horiz-adv-x="2376" 
d="M192 378q4 60 23 88t80 69t133 33t20 -81t-50 -144t76 -102t161 11t203 125t234 210t201 253t133 235t62 215t-67 200t-82 158t73 124q136 0 189 -80t96 -164t74 -171t65 -158t50 -146t51 -160t60 -179t81 -9t177 214t210 218t199 177t224 158t254 126t250 54t206 -35
t158 -76t100 -107t42 -224q-30 -68 -73 -62t-49 94t-65 145t-118 83t-155 42t-189 -15t-201 -98t-252 -165t-279 -235t-222 -255t-154 -227t-98 -232t-78 -235t-119 -172q-108 16 -113 65t29 111t58 157t28 197t-30 209t-65 180t-68 121t-79 -3t-121 -153t-196 -217
t-306 -260t-342 -194t-249 -20t-131 97t-49 210z" />
    <glyph glyph-name="O" unicode="O" horiz-adv-x="1072" 
d="M780 910q-203 -236 -270.5 -376t-82.5 -229t36.5 -96.5t148 53.5t235.5 211t319 348t207 402.5t-59.5 170.5t-210 -149.5t-323.5 -334.5zM200 254q23 138 121 301.5t251 337.5t316.5 332.5t263.5 247t191.5 126t158.5 43.5q123 -32 161 -194q0 -116 -22.5 -222
t-100.5 -211t-164 -214t-188.5 -210t-216 -204t-205 -180t-187.5 -143.5t-240 -90.5q-101 13 -120 71.5t-19 209.5z" />
    <glyph glyph-name="P" unicode="P" horiz-adv-x="2162" 
d="M453 111q-51 -55 -117 -126t-53 -103t68 -19t154 87t246 173t309 223t318 275t210 216t131 154t126 136t43 70t-54 -6t-112 -72t-166 -145t-192 -199t-215 -219t-229 -200t-127 -115t-44 -22t-24 55t82 94t237 193t154 176t-44 22t-91 -41t-135 -105t-257 -263t-218 -239
zM2148 1676q52 -10 72 -29t41 -51t58 -54t120 -19t145 -15t120 -52t84 -82q22 -46 22 -94v-6q-2 -52 -36 -127t-130 -190t-261 -273t-287 -270t-198 -159t-141 -40t-106 36t-57 72t-14 86t16 79t45 61t71 27t88 -48t99 -50t132 58t183 162t192 209t124 167t58 137t0 103
t-92 36t-96 17t-62 -8t-79 -39t-105 -99t-124 -143t-127 -130t-126 -132t-127 -135t-158 -156t-184 -162t-192 -158t-233 -170t-246 -158t-207 -121t-168 -56q-72 6 -91 29t-21 85q0 52 14 97t32 88t99 150t147 182t159 162t197 188t181 165t177 134t235 160t210 124
t139 103t117 107t88 60t76 63t63 55t64 24z" />
    <glyph glyph-name="Q" unicode="Q" horiz-adv-x="2007" 
d="M1584 1378q-276 -132 -414 -230t-281 -206t-265 -239t-193 -247t-96 -241t164 -101t323 92t171 106t60 180t128 180t184 -33t214 54t357 351t230 351t-165 110t-417 -127zM30 74l10 116q70 194 193 346t257 293t348 299t413 265t377 158t325 81t281 32q92 -20 135 -46
t55 -100l-6 -104q-88 -210 -211 -343t-312 -296t-321 -246t-106 -150t116 -129t212 -52t368 188l14 -88q-282 -230 -427 -249t-269 25t-203 122t-200 -13t-248 -146t-258 -92t-299 -43q-128 16 -212 90z" />
    <glyph glyph-name="R" unicode="R" horiz-adv-x="1902" 
d="M2626 -722q0 -118 -128 -215t-256 -148.5t-303 -51.5q-189 0 -329.5 84.5t-227 220.5t-111.5 291t-14 346t70 448t156 438t44 260t45 128t161 83t129 54t156 81t163 143t46 121t-59 45t-119 -34t-201 -104t-232 -148t-191 -147t-169 -187t-194 -242t-200 -257t-165 -216
t-143 -149t-129 -103t-113 -30t-108 69l2 108q70 36 115 46t110 58t119 122t117 179t13 75t-144 -98t-181 -98t-22 50t168 161t203 174t229 211t237 258t165 219t85 127t73 62t79 -8t42 -70t-60 -129t-91 -110t-34 -69t48 4t128 106t171 130t204 121t167 74t189 29
q110 -40 133 -105t17 -139t-43 -117t-98 -114t-164 -136t-250 -124t-200 -167t-100 -241t-77 -276t-59 -258t-53 -261t-6 -293t91 -275t158 -200t206 -77t251 29t229 128t59 187t3 143t118 -2t75 -214z" />
    <glyph glyph-name="S" unicode="S" horiz-adv-x="1956" 
d="M1948 788q-208 -110 -337 -182t-301 -152t-396 -164q76 -118 149 -131t152 30t183 118t244 198t306 283zM114 350q52 24 114 -6t117 -44t131 -3t113 25t40 66t36 102t100 75t133 6t100 -58t181 21t313 145t332 181t323 197t339 260t335 270t235 151t144 52h18
q44 0 54 -40q2 -18 2 -34q0 -36 -16 -76q-24 -60 -133 -124t-250 -153t-252 -175t-213 -169t-199 -170t-214 -206t-189 -196t-143 -133t-138 -110t-130 -105t-171 -115q-84 -48 -172 -48q-28 0 -56 6q-120 20 -207 96t-105 113t-53 28t-117 -31t-166 -10t-147 59t-107 111z
" />
    <glyph glyph-name="T" unicode="T" horiz-adv-x="1192" 
d="M1361 1296q-211 36 -298 47.5t-130.5 -50t-17.5 -121.5t84 -119.5t117 22t245 221.5zM1734 1353q121 -9 200 3t149.5 54.5t87 89t-31.5 63.5t-130 -48t-157 -93t-118 -69zM1277 296q-60 -126 -176 -173t-302 -111.5t-353 -64.5q-127 3 -177 59t-53 107q0 118 59 210.5
t275.5 251.5t300.5 240.5t10 158t-103 158.5t-25 140t44 113t102.5 85t177 38t461.5 -103q195 111 304.5 160t190.5 124t116.5 88.5t63.5 13.5q44 0 107 -26.5t86 -64.5t23 -84t-26 -109t-95 -140t-172 -111t-205 -36t-328 28q-140 -90 -240.5 -171.5t-125 -131t-4.5 -72.5
t64 -18t80 23t59 5t23 -43t-39 -73t-97 -61t-112 -13.5t-90 41t-45 58t-52 -29t-145 -120.5t-221.5 -186t-152 -214t70.5 -106.5t311 40t410 120.5z" />
    <glyph glyph-name="U" unicode="U" horiz-adv-x="2758" 
d="M2726 844q94 80 103 116t-47 12t-124 -83t-110 -117t19 -34t159 106zM2820 250q32 -112 -121 -150t-250 -54t-183 -31t-170 -21t-156 8t-77 80t-70 30t-197 -85t-249 -73t-214 -21t-139 41t-10 148t171 285t253 309t219 253t146 190t-5 59t-207 -139t-470 -451t-438 -465
t-168 -206t-10 -117t-10.5 -76.5t-92.5 -24.5q-82 0 -119.5 51.5t-37.5 101.5q0 82 98.5 186t307.5 311t429 419t490 427t375 263t200 155t151 124q25 8 48 8q28 0 52 -12q44 -21 31 -104t-195 -305t-377 -414t-312 -331t-193 -227t-112 -161t-4 -105t90 -24t143 25t175 46
t180 73t222 209t303 336t314 278t248 180t151 95t90 25t29 -58t10 -91q9 -11 9 -28q0 -31 -30 -84q-46 -82 -149 -177t-295 -222t-354 -246t-156 -194t78 -87t192 5t188 41t178 22z" />
    <glyph glyph-name="V" unicode="V" horiz-adv-x="1956" 
d="M8 146q134 274 276 465t279 335t246 235t271 178t250 113t132 26t79 -31t35 -113t-84 -211t-192 -281t-205 -289t-144 -235t-67 -141t-5 -99t65 -55t149 60t222 162t280 253t353 341t358 328t317 242t285 182t324 151l114 10q110 -36 164 -166l-6 -166
q-46 -156 -149 -234t-176 -94t-92 7t5 72t84 77t113 101t46 130t-52 76t-141 -26t-215 -114t-252 -165t-277 -223t-302 -271t-309 -294t-333 -302t-299 -226t-257 -90q-78 12 -126 63t-58 182t67 273t162 276t165 232t145 204t52 137t-83 10t-174 -82t-207 -144t-208 -194
t-209 -246t-191 -276t-144 -229t-81 76z" />
    <glyph glyph-name="W" unicode="W" horiz-adv-x="2536" 
d="M612 -2l-108 -6q-118 28 -136 93t64 182t171 229t195 247t218 283t176 256t-12 62t-168 -140t-202 -216t-221 -250t-209 -248t-165 -187t-125 9q98 148 334 440t412 483t334 333t318 236q114 -10 129 -59t-7 -112t-126 -248t-246 -357t-272 -358t-222 -293t-128 -143
t-10 -36t116 37t278 148t348 219t262 148t137 -11t23 -136t-38 -167t-26 -134t45 -71t123 52t250 232t377 343t380 320t309 231t231 131t168 30t134 -67t71 -195q-22 -92 -89 -172t-119 -47t-30 82t45 86t4 89t-82 56t-142 -56t-220 -157t-324 -257t-329 -302t-269 -257
t-203 -190t-156 -127t-143 -55t-123 48t-71 130t-9 145t23 126t-47 40t-280 -146t-356 -224t-262 -122z" />
    <glyph glyph-name="X" unicode="X" horiz-adv-x="2540" 
d="M1858 716q244 -70 473 80t261 246t-87 40t-210 -154t-437 -212zM2028 1774q88 -2 149 -38t58 -113t-73 -199t-181 -236t-195 -190t-98 -129t35 -51t150 51t159 112t140 113t215 105t241 44t130 -125q-4 -100 -175 -292t-370 -254t-399 12q-176 -122 -232 -276t-38 -197
t88 -52t212 13t287 58t242 80t149 54t52 -70q-108 -76 -179 -112t-246 -93t-344 -74t-266 2t-156 54t-64 100t17 140t99 182t-6 73t-251 -168t-272 -250t-180 -160t-178 -74l-62 8q-72 36 -99 96t0 121t104 174t173 216t199 191t254 146t227 61t134 4t85 96t108 161t159 151
t124 140t91 133t19 107t-81 16t-140 -62t-207 -132t-266 -194t-274 -226t-272 -238t-252 -227t-200 -179t-141 -125t-61 -96t-19 -95t-57 -58t-92 20t-78 111l20 70q80 66 157 113t211 164t257 248t272 265t283 256t316 242t326 196t262 86zM1526 650q-218 20 -293 -12
t-158 -90t-177 -154t-161 -185t-72 -136t51 -13t96 99t130 161t204 176t380 154z" />
    <glyph glyph-name="Y" unicode="Y" horiz-adv-x="2492" 
d="M788 768q130 54 374 185t526 284t449 248t148 133t-94 26t-200 -30t-263 -51t-330 -97t-351 -139t-291 -156t-171 -151t14 -124t189 -128zM2520 270l42 -74q-258 -158 -566 -360t-648 -465t-500 -334t-238 -73q-170 84 -100 222t313 389t434 394t291 210t279 152t80 83
t-258 -38t-442 -101t-536 -95t-326 20t-77 148q6 98 84 155t162 97t24 69t-113 78t-86 116t-7 138t79 128t248 180t393 205t452 149t523 100t387 33q96 -16 136 -35t68 -95q0 -48 -32 -88q-76 -78 -491 -297t-607 -323t-490 -244q232 -4 332 12t206 48t178 72t73 96t60 92
t59 -30t86 -123t9 -108t-377 -122t-466 -90t-382 19q-318 -172 -247 -220t247 -20t360 76t449 120t420 100t221 -2t68 -102t-41 -145t-349 -225t-446 -247t-378 -316t-305 -333t12 -78t236 127t502 356t548 376t447 223z" />
    <glyph glyph-name="Z" unicode="Z" horiz-adv-x="1992" 
d="M2796 1340q-42 -76 -88 -109t-201 -95t-205 -80t-124 -14t-128 4t-129 -30t-159 -90t-166 -110t-176 -106t-170 -115t-111 -111t-41 -84t28 -65t194.5 -90t300 -62t347.5 57l136 -80l-254 -126q-170 -60 -296 -44t-197 44t-132 76t-121 64t-107 17t-126 -21t-168 -72
t-124 -106t-121 -131t-161 -83q-77 12 -88 58t7 79t16 54t-40 27q62 88 177.5 169.5t264 142t179.5 65.5t75 67t124 115t193 120t184 143t134 118t85 55t-13.5 50t-154 111t-225.5 111.5t-205.5 33.5t-143 -51.5t-41.5 -121.5t32 -119t58 -60t36 -54t-23 -73t-87 -11
t-119 108t-80 195.5t40 211.5t140 126.5t153 25.5t150 -12t203 -69t237 -118t181 -88t155 -14t187 97t223 133t193 104t148 63q82 -34 144 -230z" />
    <glyph glyph-name="bracketleft" unicode="[" horiz-adv-x="1488" 
d="M1082 -28q90 81 22.5 79t-117.5 -37.5t-145.5 -70.5t-195.5 -85t-234.5 -138t-233.5 -168t-154 -138.5t11 -42t140 48.5t176.5 101.5t232.5 155.5t272 152.5t226 142.5zM1545 190q-88 -51 -148.5 -65t-64.5 -74.5t-38 -102.5t-102.5 -85t-231 -129t-251 -130t-235.5 -128
t-241.5 -136t-211 -96t-259.5 -77q-51 2 -69.5 14.5t-29.5 61.5q15 63 119.5 153t224 169t183 138.5t175 123t190.5 102.5t158.5 59t116.5 45.5t32 59.5t-64.5 28t-80 34t1 77.5t52.5 66.5t52.5 70t-23.5 32.5t-135.5 -12.5t-126 12.5t-52 -25.5t-50.5 -80t-92 -67.5
t-147.5 -57.5t-165 -39t-98 13.5t3.5 56t99 54.5t142 52.5t101.5 68.5t49 87t20.5 103.5t43 76t92 24.5q64 -39 79 -80t63.5 -58.5t107.5 -15.5t124 13.5t130.5 42t109.5 28.5t60 -36t-11.5 -67.5t-71.5 -75.5t-76.5 -68.5t-27.5 -75t48 -74t113.5 -26.5t145.5 17.5
t206 90.5z" />
    <glyph glyph-name="backslash" unicode="\" horiz-adv-x="1278" 
d="M1356 -166q-6 -95 -79 -108q-57 4 -94 43t-46 113.5t-83.5 247.5t-281 586.5t-450.5 758t-444 606.5q1 63 44 83q75 -4 111 -31.5t99 -137.5t296.5 -468t385 -623t276.5 -514.5t175 -360t91 -195.5z" />
    <glyph glyph-name="bracketright" unicode="]" horiz-adv-x="794" 
d="M617 483q-43 2 -135 -27t-142.5 -76.5t-79 -84.5t-23.5 -79t42 -63.5t79 -15.5t91.5 50t75.5 100.5t92 195.5zM-385 1544q157 -7 298 -25t272 -66t238.5 -136t178.5 -188t111.5 -214t43.5 -159t3 -128q-9 -209 -54.5 -317.5t-131.5 -191t-148 -102t-143 -19.5
q-70 4 -119 17.5t-74.5 44t-40 117.5t9 153.5t89 132.5t172.5 107.5t173.5 40.5t100 21.5t34 75.5t-74 225.5t-212 290.5t-364.5 166.5t-480.5 30.5t-368 -81.5t-193.5 -78t-107.5 -53.5t-64 -62.5t-75.5 -22.5t-43 33v13q0 29 53 62.5t182.5 102t235 110t213 63t286.5 37.5
z" />
    <glyph glyph-name="asciicircum" unicode="^" horiz-adv-x="1404" 
d="M1266 1235q-4 -28 -66 -39q-46 6 -132.5 191.5t-167.5 177.5q-90 -59 -186.5 -143t-163 -150.5t-131.5 -65t-86 22t-24 57.5q0 80 99 75q112 16 212.5 130t167 198t171.5 94q67 -35 128.5 -138.5t98 -168.5t58.5 -123.5t22 -117.5z" />
    <glyph glyph-name="underscore" unicode="_" horiz-adv-x="2089" 
d="M2121 -384q-99 -8 -294.5 -7t-400 -9.5t-528.5 -23.5q-398 3 -543 6.5t-264.5 9t-182.5 20.5q68 64 135.5 69.5t219.5 -0.5t257 -6t281 -2.5t312.5 15.5t463.5 18l227 2q273 -12 370 -4z" />
    <glyph glyph-name="grave" unicode="`" 
d="M0 1306q4 11 12 19t40 13q37 -1 47.5 -24.5t45 -48t77 -69t91.5 -67t78 -27.5t44.5 -20.5t19.5 -42.5q-3 -24 -11 -28.5t-39 -10.5q-31 0 -53 11.5t-36 23.5t-43 23t-63.5 38t-77.5 76.5t-69.5 64.5t-35 33t-18 24.5t-9.5 11.5z" />
    <glyph glyph-name="a" unicode="a" horiz-adv-x="1128" 
d="M375 182q163 78 223 121t70 80t-7 77t-80 34t-136 -44t-147 -100t-94 -111t19 -76t152 19zM568 130q-82 -22 -147 -58t-126 -54t-135 -18q-51 0 -105.5 47t-54.5 167q2 63 107 164.5t246 177.5t251 76q98 0 139 -29t54 -64t10 -79t38 -34t43 -39t-39 -102t-65 -74
t-14 -47t70 -33t128.5 8.5t120 51.5t69 32t29.5 -36q-1 -39 -62.5 -85.5t-136 -71t-150.5 -28.5q-112 0 -175 35t-95 93z" />
    <glyph glyph-name="b" unicode="b" horiz-adv-x="1114" 
d="M837 435q-11 27 -48 22t-45 -33t22 -47t56 6t15 52zM-22 138q2 76 40 133t162 173t235 187t215 197t180 201t157 119t139 48q62 -12 72 -70q-20 -58 -86 -132t-134 -126t-143 -105t-163 -120t-170 -120t-209 -163t-131 -148t29 -62t92 -15t129 42t127 59t106 56t10 56
t-35 70t48 85t94 60t90 13t79 -28t46 -61t-6 -86t-39 -66t-6 -42t66 -37t92 -9t91 8t55 -57q-98 -68 -163 -76t-126 10t-97 63t-69 31t-71 -42t-124 -69t-173 -72t-185 -51l-82 -2q-134 36 -142 148z" />
    <glyph glyph-name="c" unicode="c" horiz-adv-x="708" 
d="M756 202q-8 -44 -37 -60t-80 -40t-108 -42t-127 -35t-111 -22t-83 -5q-38 0 -82.5 10t-87 48t-42.5 114q4 56 34 116t78 116t108 96t107 59t62 34t56 30t75 15q28 -2 47 -14t28 -31t-4 -40t-38 -42t-29 -52t-38 -36t-74 9t-69 10t-67 -47t-67 -82t-42 -78t6 -71t54 -42
t103 -3t138 28t137 45t97 41t56 -29z" />
    <glyph glyph-name="d" unicode="d" horiz-adv-x="1134" 
d="M342 323q-119 -107 -164.5 -176t-26.5 -88t111 27t176 100t122 108t48 111t-11 77t-67 -3t-188 -156zM576 154q-44 -34 -99 -69t-104 -61t-102 -57t-85 -49t-130 -22q-70 8 -104 58q-22 36 -22 76q14 70 58 124t96 117t107 114t109 99t121 84t132 52t106 11t71 -35
t33 -62t10 -68t42 -3t60 73t80 122t96 125t109 113t142 140t139 106t97 40q46 -10 61 -25t25 -55q-20 -66 -83 -139t-135 -148t-122 -109t-101 -57t-111 -88t-128 -140t-96 -125t-61 -86t-33 -63t35 -35t78 27t122 49t120 40t50 -7t13 -54t-57 -53t-113 -45t-93 -29
t-115 -33t-131 -6t-76 49t-11 104z" />
    <glyph glyph-name="e" unicode="e" horiz-adv-x="770" 
d="M160 301q85 53 147.5 102.5t47 75t-60 -0.5t-83 -76t-51.5 -101zM856 200q-26 -63 -101 -103.5t-178 -71.5t-231 -31q-136 0 -197.5 21.5t-110 66t-48.5 132.5q0 84 26 140t84.5 123t129 113t156.5 46q62 0 108 -33t39 -114t-97 -145t-167.5 -102t-67 -57.5t56.5 -35
t151 -16.5t187 20t133 45t80 32t47 -30z" />
    <glyph glyph-name="f" unicode="f" horiz-adv-x="1020" 
d="M584 149q10 60 -4 89.5t-46 4.5t-32 -63t31 -67t51 36zM-28 118q-4 98 119 130t238 132.5t178 81t301.5 220t322 343t184 188.5t143.5 102t68 17q32 -1 55 -18.5t24 -49.5q0 -54 -23 -102t-151.5 -174.5t-285.5 -281.5t-297 -233.5t-142 -119.5t3 -92t-7 -98t82 -31
t201 70t125 -60q-88 -52 -149 -81t-123 -47t-127 -40t-132 -21t-104 38t-53 75t-59 -1t-189 -186t-258 -260t-270 -302t-250 -289t-112 -143t19 -24t185 155t316 287t313 280t220 224t89 112t34 -7t5 -91t-134 -200t-279 -276t-417 -352t-353 -274t-212 -119q-42 4 -78 24
q-4 38 -8 74q20 42 82 119t234 265t337 373t268 307t162 180t141 155t19 76t-255 -55z" />
    <glyph glyph-name="g" unicode="g" horiz-adv-x="984" 
d="M338 384q-56 -46 -91 -106t12 -95t122 -18t118 72t32 144t-74 69t-119 -66zM214 -112q-124 -72 -262 -155t-279 -185t-282 -246t-213 -228t-112 -163t-29 -142t74 -51t126 51t179 147t226 245t264 338t308 389zM402 62q-126 4 -207 7t-121 54t-37 114t87 136t171 117
t225 114h44q80 -38 111 -98t28 -114t-28 -101t-5 -70t112 1t190 72t214 0q-174 -120 -256 -146t-200 -70t-190 -88t-177 -144t-233 -276t-253 -329t-206 -250t-202 -208t-190 -142t-131 -39h-44q-118 34 -159 93t-53 161q24 120 124 260q218 240 334 329t244 178t287 178
t274 151t247 110z" />
    <glyph glyph-name="h" unicode="h" horiz-adv-x="1282" 
d="M253 244q-233 -111 -289 -111.5t-67 53.5q14 23 101 59t180 77t197 103.5t258 195.5t277 256l185 185t94 104t78 54q106 -32 109 -82t-53 -114t-220 -207t-327 -283t-223 -185.5t-94 -106.5q194 106 264 139t133 47t107 -3t50 -70t-30 -110t-56 -83t-10 -43t86 -4t156 48
t130 59t74 14t36 -78q-186 -92 -253 -114t-137.5 -33t-105.5 -11q-51 0 -103.5 18t-62.5 74t56 113t66 77t-53 -7t-126 -63t-127 -63t-127 -64t-133 -63t-123 -29q-50 0 -66.5 41.5t33.5 84.5t116 125z" />
    <glyph glyph-name="i" unicode="i" horiz-adv-x="981" 
d="M479 -10q-102 12 -148 39t-75 73t-31 92t11 91.5t-27.5 -2.5t-111.5 -89t-120 -65.5t-67 76.5q162 75 236 171.5t169.5 139t153.5 89.5t111 32t52 -67t-60 -88t-88 -77t-47 -91t-1 -100t65 -65t150 -14t179 21t135 55t98 25l12 -48q-26 -42 -75 -71t-97 -49t-137 -40
t-203 -34zM999 1263q26 56 100 100l38 2q48 -22 50 -58t50 -68l-14 -34q-48 -30 -106 -42l-36 10q-54 62 -82 90z" />
    <glyph glyph-name="j" unicode="j" horiz-adv-x="794" 
d="M-273 -513q85 95 123 151t-42 0t-237 -191t-250 -235t-148 -169t-77 -116t-11 -72t47 3t111 95t237 253t247 281zM-32 136q-14 86 68 103t199 73t181 92t128 76t120 88t96 57t76 -5t22 -50t-64 -80t-130 -98t-134 -101t-90 -93t-49 -80t22 -27t113 31t156 62t125 55
t85 -13q-62 -72 -126 -109t-127 -58t-137 -41t-141 -50t-129 -80t-107 -84t-97 -86t-102 -136t-117 -166t-156 -177t-201 -221t-212 -211t-218 -111q-108 28 -114 110q10 60 89 170t183 226t241 239t291 232t238 162t131 88t83 72t57 83t57 98t92 116q-168 -102 -215 -122
t-187 -34zM990 1202l42 -56l-14 -84q-114 -72 -145 -41t-49 90t86 127z" />
    <glyph glyph-name="k" unicode="k" horiz-adv-x="1669" 
d="M296 275q-157 -109 -258 -151.5t-107 6.5q1 51 61.5 82.5t197.5 108.5t259.5 183t207.5 209t180 198t167 170t134 101l24 -2q32 -84 -64 -190t-231 -269t-245 -285t-116 -178q200 96 352 193t265 152t156 50t68 -52t-7 -106t-115 -55t-152 -26t-140 -68t-104 -70t-5 -85
t106 -72t196 -17t209 16t149 37t88 54t52 26t34 -49q-12 -58 -70 -101t-158 -68t-255 -29t-284 6t-189 47t-46 167q-84 -60 -172 -115t-174 -113q-58 -38 -100 -38q-22 0 -40 10q-54 32 -41 82t167 241z" />
    <glyph glyph-name="l" unicode="l" horiz-adv-x="798" 
d="M410 532q84 8 161 52t161 114t129 127t41 91t-45 26t-109 -55t-143 -129t-121 -126t-74 -100zM798 178q-30 -60 -121 -100t-325 -78h-138q-112 10 -144 38t-48 63t-22 79q6 58 81 145t143 151t182 203t222 238t194 151t178 136l38 4q50 -8 81 -23t49 -41l8 -42
q-14 -52 -86 -153t-165 -182t-178 -154t-178 -113t-163 -68t-125 -83t-84 -112t-13 -96t74 -41t136 10t151 29t128 46t81 47t44 -54z" />
    <glyph glyph-name="m" unicode="m" horiz-adv-x="2394" 
d="M90 218q-98 -82 -120 -71t-30 45q0 22 15 42t101 93t186 147t200 123t198 71h28q80 -12 109 -42t25 -65t-50 -100t-124 -128t-129 -108t-11 -41t122 39t148 76t141 73t177 65t165 19t83 -84t-21 -139t17 -56t135 47t138 62t148 68t183 65t152 -6t62 -82t-35 -101t-59 -86
t52 -26t191 72t215 136q18 -18 18 -40q0 -20 -24 -59t-164 -124t-328 -109q-148 6 -171 58t17 84t68 86t-59 25t-163 -64t-200 -72t-243 -73t-201 -40q-66 0 -68 40q8 70 67 112t83 90t-50 43t-144 -31t-187 -78t-233 -98t-179 -61t-117 -15q-42 0 -69 2t-42 28t12 63
t126 100t172 115t141 109t53 85t-82 6t-145 -70t-226 -160z" />
    <glyph glyph-name="n" unicode="n" horiz-adv-x="1338" 
d="M1498 244q-6 -78 -41 -111t-218 -92t-273 -34t-114 78t-6 113t-105 -28t-215 -138t-138 -70q-62 0 -97 21t-39 75t53 100t110 96t65 102t-61 33t-200 -107t-168 -110t-113 -28q10 100 50 118t122 89t193 128t174 86t137 33q66 -24 79 -79t-10 -118t-167 -213
q228 134 315 185t140 63t91 -33t0 -131t-25 -128t192 8t269 92z" />
    <glyph glyph-name="o" unicode="o" horiz-adv-x="1001" 
d="M1088 224q-10 -60 -33 -72t-93 -22t-168 43t-140 21t-126 -83t-165 -81t-185 -30q-96 32 -136 99t-40 147q10 56 83 123t140 112t136 66t98 -6t38 -66t-8 -63t-50 -32t-91 -21t-125 -64t-35 -99t79 -50t89 26t99 53t111 62t54 93t-42 87t-35 79t44 66t123 20
q90 -18 110 -90t-3 -134t57 -112t143 -33t71 -39z" />
    <glyph glyph-name="p" unicode="p" horiz-adv-x="1498" 
d="M1593 205q-10 -97 -92.5 -149.5t-210.5 -67t-197 -4.5t-96 66t13 114t83 110t90 90t20 45t-97 -17t-215 -87t-275 -140t-311 -218t-285 -241t-255 -244t-272 -225t-157 -111q-34 -26 -72 -26h-8q-44 2 -54 44v8q0 40 80 100q90 66 222 190t355 311t338 289t192 177
t251 243q-188 -86 -314 -176t-218 -154t-119 19q-2 65 94 107t213.5 140.5t300.5 202t274 197.5t116 107t41 13t38 -13t9 -74t-107 -168t-181 -171t-235 -224q202 88 326 147t224 89t171 41t104 -26t10 -114t-87 -140t-82 -98t65.5 -33.5t135.5 22.5t101.5 63.5t72.5 -14.5z
" />
    <glyph glyph-name="q" unicode="q" horiz-adv-x="1154" 
d="M498 192q78 92 75 131t-50 63t-96 11t-86 -52t-50 -112t6 -97t68 -13t133 69zM1162 172q44 0 44 -28q0 -39 -105 -123.5t-219 -209.5t-283 -276t-305 -284t-300 -242t-264 -119q-28 -2 -48 -2q-58 0 -68 20q-12 20 -12 56q0 16 4 36q6 62 63 156t154 205t219 231t187 198
t104 112t-18 34t-130 16t-115 62t-52 119t94 199q156 144 237 194t141 84t152 60q68 -26 81 -60t11 -120t-23 -141t23 -26t96 42t78 10t8 -73t-107 -148t-206 -189t-187 -177t-190 -191t-182 -208t-101 -148t-60 -114t81 18t227 182t312 276t320 296t208 204t131 69z" />
    <glyph glyph-name="r" unicode="r" horiz-adv-x="816" 
d="M924 178q-146 -68 -260 -116t-240 -64q-84 0 -128 7t-81 37t-46 74t15 86t72 80t102 61t93 65t19 64t-58 13t-180 -151t-284 -202l-24 74q132 74 273 225t219 180t172 29q36 -2 62 -16t32 -47t-2 -73t-48 -97t-95 -96t-76 -71t-3 -63t139 -6t179 46t124 51z" />
    <glyph glyph-name="s" unicode="s" horiz-adv-x="764" 
d="M435 293q-149 -61 -304 -122q15 -53 72 -44t104.5 39.5t86.5 71.5t41 55zM-76 266q2 64 13 98t37 46t66 8t56 -127q100 33 190.5 69.5t184 79t157.5 81t96 76t48 76t54 47.5q45 -1 66 -18.5t26 -81.5q-2 -28 -14 -55t-52.5 -64.5t-86 -61t-101 -57.5t-111 -91t-80 -110.5
t-50.5 -97t-79 -71t-164 -34.5q-74 2 -132 36t-88 101t-36 151z" />
    <glyph glyph-name="t" unicode="t" horiz-adv-x="772" 
d="M782 850q98 12 293 34t399 41t411 33t406 18t414 -1t350 -18t215 -83q-82 -26 -150 -17t-146 14t-187 2t-264 -8t-331 -7t-357 -17t-344 -32t-339 -31t-250 -19t-122 -11t-79 -21t-66 -45t-87 -83t-123 -138t-126 -146t-79 -114t-6 -94t68 -50t192 40t202 87t91 48
t48 -13t-49 -79t-118 -86t-119 -56t-151 -38q-54 -8 -102 -8q-30 0 -58 2q-76 8 -119 35t-57 71q-16 40 -16 72q0 2 2 6q0 34 20 88t55 114t161 174t186 204q-92 -12 -123 -13t-37 37t18 56t94 27t146 23q134 126 219 202t182 164t184 147t151 61q38 -50 -71 -147t-173 -161
l-123 -123t-135 -141z" />
    <glyph glyph-name="u" unicode="u" horiz-adv-x="1432" 
d="M774 246q-130 -72 -225 -114t-189 -81t-160 -45t-92 -6q-68 0 -112 18q-62 26 -64 86q-2 0 -2 2q0 58 120 174q150 142 232 221t123 109t73 38q36 -6 52 -14t39 -38t-10 -98t-105 -114t-123 -81t-91 -69t-36 -63t49 -29t117 26t183 85t202 98t145 68t80 75t60 62t55 -16
t10 -101t-50 -105t-79 -72t-46 -62t13 -63t156 -9t199 57t164 49l34 -40q-18 -44 -104 -87t-235 -79t-255 -36q-108 0 -152 25t-51 70t75 159z" />
    <glyph glyph-name="v" unicode="v" horiz-adv-x="1177" 
d="M11 203q0 30 7 61t83.5 97t124.5 152t90 105.5t76 -1.5t52 -89t-35 -126t-111 -86.5t-77 -75t9 -75.5t83 -17t110 42t110 71t119 92t72 107t27 104t50 67t81 19q56 -24 98 -52t24 -92t-59 -106t-57 -73t-14 -52t47.5 -58.5t120 -28t113.5 37t70 33.5t41 -22t18 -66
q-72 -48 -139 -79.5t-144 -33.5t-143 35t-85 71t-38 40t-56 -20t-103 -77t-151 -83t-177 -32q-57 3 -123.5 39.5t-90 86.5t-23.5 85z" />
    <glyph glyph-name="w" unicode="w" horiz-adv-x="1920" 
d="M688 680q100 -28 123 -72t-15 -112t-109 -96t-143 -95t-121 -112t-30 -66t77 -9t127 45t145 78t116 80t54 68t55 75t106 34t68 -80t-69 -115t-81 -81t33 -60t117 -16t138 31t113 75t65 97t1 83t-26 89t10 86t81 32t105 -16t63 -53t9 -73t-28 -66t-17 -69t46 -84t99 -51
t160 19l44 -98q-172 -52 -252 -37t-156 105q-50 -76 -96 -123t-118 -71t-168 -29t-171 10t-123 75t-68 126q-108 -110 -163 -154t-128 -62t-129 -18q-120 4 -169 51t-36 104t105 143q-159 -75 -240.5 -106.5t-133.5 -38t-59 44.5q4 29 129.5 77.5t236.5 112.5t199 159
t131 127t93 36z" />
    <glyph glyph-name="x" unicode="x" horiz-adv-x="1001" 
d="M1122 155q-123 -89 -192 -125.5t-125.5 -62.5t-117.5 -33l-59 3l-44 28q-43 36 -54 69.5t-17 49.5t-23.5 23t-51 -16.5t-100 -59.5t-105 -38t-67 17t-38.5 45.5t7.5 55t51.5 43.5t23 34t-63 -12.5t-103.5 -48.5t-78.5 -22t-36 53q10 26 74 44t172 88q10 47 48.5 62t75 2
t109 30.5t173 136.5t118.5 113.5t45 28.5q30 -2 50 -11t45.5 -39.5t28.5 -67t-36.5 -56.5t-100 -40.5t-108 -47t-82 -62.5t-45.5 -61.5t6 -45t69.5 -5t82 4.5t33.5 -42.5t-9 -67t7 -55t108 6t160 91.5t99.5 73t44.5 -8.5t25 -74.5z" />
    <glyph glyph-name="y" unicode="y" horiz-adv-x="1490" 
d="M1638 216q0 -12 -6 -30q-40 -34 -148 -102t-295 -198t-364 -269t-349 -236t-298 -179q-54 -22 -94 -22q-24 0 -42 8q-50 22 -2 128t129 192t174 156t191 124t186 114t112 104t-39 29t-169 -30t-184 -12t-136 43t-41 107t75 123t142 108t114 81t34 51t-75 -15t-173 -95
t-209 -162t-337 -140q40 98 88 116t100 59t157 113t222 142t215 104q56 18 96 18q32 0 54 -10q52 -26 69 -68t-22 -105t-122 -122t-150 -100t-67 -69t58 -50t178 -3t207 60t143 59t66 -36t-24 -131t-131 -143t-227 -152t-255 -158t-205 -173t-19 -67t158 91t221 142t396 292
t407 276t169 63q22 -4 22 -26z" />
    <glyph glyph-name="z" unicode="z" horiz-adv-x="1191" 
d="M1201 164q-72 -84 -113 -126t-107 -44q-66 6 -111 18t-100 23t-133 9t-147 -21t-126 -21t-76 18t-20 52t48 80t133 100t137 98t84 80t-32 55t-120 18t-91 -27t-48 -76t-54 -98t-102 -73.5t-116 -65.5t-82.5 -32.5t-41.5 37.5q1 29 23 51.5t78.5 63t123.5 73t52 102.5
t7.5 95t63 43t110.5 34l96 2q124 -6 207 -16t114 -29t34 -60t-23 -80t-78 -81t-92 -75t-100 -73t64 -27t199 -3t134 -38t185 98z" />
    <glyph glyph-name="braceleft" unicode="{" horiz-adv-x="2024" 
d="M2125 159q-315 -257 -413 -300.5t-206 -43.5q-112 0 -175 113.5t-4 347.5t156 415t44 260t45 128t330.5 160.5t292 197t45.5 121t-74 50.5t-267.5 -115.5t-377 -256.5t-276.5 -255.5t-296 -381t-317 -393t-192 -180t-128 -37.5t-108 69l2 108q70 36 115 46t110 58
t119 122t117 179t13 75t-144 -98t-181 -98t-22 50t168 161t219.5 172t229 211t224.5 253t154 221t70 136t84 60t90 -10t42 -70t-60 -129t-91 -110t-34 -69t57.5 15t230 174t298.5 195t321 80q88 -10 131 -79t43 -168q0 -97 -96.5 -190.5t-216 -166t-266.5 -131.5t-200 -167
t-137 -341t-83 -366t109 -165t448 215z" />
    <glyph glyph-name="bar" unicode="|" horiz-adv-x="1756" 
d="M1520 946q72 152 39 228t-82 92.5t-103 6t-218 -98.5t-264 -176t-185 -197t-207 -240.5t-159 -254t-27 -180.5t56 -55t148 38.5t288 152t347 258.5t367 426zM1862 176q-182 -116 -383 -154t-289 -24t-119 81t-19 147q-90 -54 -175 -77t-184 -69t-199 -101t-180 -59
q-88 4 -121 41t-33 176q0 103 71 231.5t157 246t197 252.5t212 235t212 172t230 127t153.5 60.5t62.5 5.5q41 -1 95 -21t115 -78t70 -131t-67 -227t-118 -213t-9 -61t30 -38t-68.5 -130t-139 -157t-85.5 -136t28 -110t119 -27t175 39t159 51t103 -52z" />
    <glyph glyph-name="bar" unicode="&#xa6;" horiz-adv-x="1756" 
d="M1520 946q72 152 39 228t-82 92.5t-103 6t-218 -98.5t-264 -176t-185 -197t-207 -240.5t-159 -254t-27 -180.5t56 -55t148 38.5t288 152t347 258.5t367 426zM1862 176q-182 -116 -383 -154t-289 -24t-119 81t-19 147q-90 -54 -175 -77t-184 -69t-199 -101t-180 -59
q-88 4 -121 41t-33 176q0 103 71 231.5t157 246t197 252.5t212 235t212 172t230 127t153.5 60.5t62.5 5.5q41 -1 95 -21t115 -78t70 -131t-67 -227t-118 -213t-9 -61t30 -38t-68.5 -130t-139 -157t-85.5 -136t28 -110t119 -27t175 39t159 51t103 -52z" />
    <glyph glyph-name="braceright" unicode="}" horiz-adv-x="1596" 
d="M409 483q117 107 207.5 189t168 174t161.5 203t190 210t-64 -33t-272 -224t-185 -193.5t-206 -325.5zM922 214q-134 -110 -253.5 -198.5t-272.5 -91.5q-125 11 -189 89t-69 175q-191 -99 -205 29q162 73 237 142q109 264 270.5 463.5t358.5 353.5t324 246t152 152t107 64
q92 -38 103 -98t-24 -104t-98 -110t-123 -127t-187.5 -212t-233 -264t-200.5 -196t-260 -210q-25 -131 18 -190t119 -55.5t167 78t196 166.5t241 228t252 233t228 226t158 159t136 -54v-64q-54 -88 -157 -167t-222 -174t-226 -206t-140 -205t18 -123t175 -16t200 45t182 84
q56 -20 37 -55t-129 -105t-204 -99t-224 -43q-81 5 -143 30t-94.5 86.5t-24.5 117.5z" />
    <glyph glyph-name="asciitilde" unicode="~" horiz-adv-x="1374" 
d="M250 570q101 33 121 -30.5t90 -126t167.5 58t236.5 132.5q70 -1 132 -53.5t94 -121.5t40 -117q-70 -27 -103 16.5t-76.5 90.5t-102 29t-139.5 -114t-176 -97q-93 0 -148 50.5t-92 137t-44 145.5z" />
    <glyph glyph-name="nonbreakingspace" unicode="&#xa0;" horiz-adv-x="770" 
 />
    <glyph glyph-name="exclamdown" unicode="&#xa1;" horiz-adv-x="1405" 
d="M58 -644q-25 0 -34 24q7 58 28 93.5t62 88t87.5 82.5t97.5 92.5t107.5 88t92.5 47.5t78 89t84.5 78.5t87 34.5t75 7t-27 -120.5t-135 -140.5t-135 -106t-131 -124t-133 -92t-118.5 -89t-86 -53zM1145 639l41 -2l16 -36q-43 -59 -78.5 -82t-57.5 -74.5t-47 -93.5t-68 -49
t-76.5 24t-50.5 78.5t-4.5 86.5t58.5 64.5t99.5 50t98.5 29.5q30 4 69 4z" />
    <glyph glyph-name="sterling" unicode="&#xa3;" horiz-adv-x="2257" 
d="M1202 647q82 -3 163.5 2t109 -15.5t27.5 -52t-71.5 -40.5t-306.5 -21q-85 -112 -159.5 -165.5t-101.5 -103.5t23 -67.5t126 -68t252 -73t341.5 7t240 72t69.5 90.5t5 122t-38.5 55t-79.5 2.5t9.5 49.5t104.5 29.5t98 -34.5t34 -95.5t-6.5 -128t-65.5 -134t-162.5 -107.5
t-417.5 -54q-374 5 -489.5 98t-212.5 94t-202 -13t-140.5 -66.5t-91 -58.5t-96.5 1t-65 65q12 58 53.5 75.5t115.5 72t158 73t153 3t94 3t100 93.5t128 115t9 43.5t-90.5 -2.5t-177.5 -6t-228 3t-122 25t-13.5 48t125 28t216.5 5t249.5 14t162.5 27.5t75 117t190 268.5
t243 283.5t240 202.5t174.5 109t80.5 22q37 0 64 -18.5t31 -79.5q0 -53 -37.5 -63.5t-62.5 5t-50 18.5t-89 -32.5t-76.5 -79t-75 -77t-222 -212t-315.5 -474.5zM373 812q7 50 75.5 62.5t168.5 12.5t174.5 6t155.5 28t216 -13l-52 -90q-58 -12 -136 -9t-127.5 -22t-137 -15.5
t-165.5 -3t-112.5 -12.5t-59.5 56z" />
    <glyph glyph-name="yen" unicode="&#xa5;" horiz-adv-x="2142" 
d="M1482 1063q181 209 267 322.5t128 181t24.5 100.5t-64.5 32t-108.5 -48t-133.5 -120t-129 -162t-64.5 -168t80.5 -138zM1925 539q-96 -115 -186.5 -225.5t-247.5 -288.5l-82 -37q-86 45 -83 111.5t236 314.5l215 221q-102 123 -309 182q-324 -301 -443.5 -394
t-246.5 -163t-256 -108.5t-199.5 -32.5t-124 44t-76 104.5t-22.5 144.5q0 20 6 62t52 106.5t110.5 100.5t133.5 42t97.5 -17.5t-8.5 -78t-114.5 -63.5t-113.5 -60t-7.5 -120t83 -92.5t168 18.5t266 129t281.5 205t256 267q-82 127 -89 204t16.5 138.5t93 158.5t135.5 165
t164 143.5t156.5 97t95.5 21.5q30 0 77.5 -16.5t79 -79t10 -141t-103.5 -198.5t-171 -227.5t-171 -201.5q238 -70 313.5 -96.5t122 78t149.5 218t151.5 211t111 153.5t115.5 68.5t89 -9t44 -85.5q-2 -131 -169 -243.5t-272.5 -244.5t-106.5 -209t-6 -155.5t-67.5 -112.5
t-152.5 -9z" />
    <glyph glyph-name="section" unicode="&#xa7;" horiz-adv-x="1400" 
d="M1542 265q-12 -66 -88 -109t-184.5 -95.5t-262 -109t-313.5 -56.5q-122 3 -235.5 30.5t-190 126.5t-78.5 220q3 140 78.5 341t242 370.5t386.5 309.5t447.5 224.5t366.5 84.5q112 -3 181.5 -42.5t94 -95t24.5 -147.5q0 -62 -55.5 -155t-188.5 -188.5t-256.5 -145.5
t-202 -54.5t-138.5 27t-87 97t0 146t80 122.5t110 45.5t76 -42.5q-20 -60 -62.5 -54t-40.5 -69.5t48.5 -106t173.5 4t250.5 110t162 150.5t19 152t-139 96t-246.5 -8t-318.5 -111.5t-409 -259t-304 -374.5t-77.5 -357.5t93 -212t245 -64.5t331.5 47.5t257 105.5t133 66.5
t77.5 -19.5z" />
    <glyph glyph-name="dieresis" unicode="&#xa8;" 
d="M4 1154l-4 14q0 12 20 25q28 19 32 46t40 33q104 -24 278 -42q-16 -38 -87 -36t-165 -90q-44 2 -73 21t-41 29zM494 1270q120 -40 134 -98q-76 -8 -90 -31t-60 -35q-44 10 -63 22t-22 49t14 61t57 32h30z" />
    <glyph glyph-name="copyright" unicode="&#xa9;" horiz-adv-x="3166" 
d="M1222 1754q62 -94 114 -268q244 106 460 106q450 0 774 -460q146 40 182 112q126 -82 134 -146q2 -12 2 -22q0 -50 -30 -82q-36 -40 -142 -92q170 -494 -124 -1072q-186 -298 -395 -470t-547 -196q-80 -4 -156 -4q-244 0 -440 58q-258 76 -418 239t-142 440t410 445
q38 410 -168 858q-346 -242 -310 -712q60 -64 236 158q118 14 150 -122q34 -136 -156 -284q-92 -10 -52 74q156 46 76 190q-120 -74 -188 -232q-182 -10 -224 126q-6 72 -6 138q0 418 220 620q252 234 305 316t155 -200l188 396zM1366 1424l30 -44l56 -72q206 100 353 49
t239 -159t205 -126t241 16l-154 192q-180 176 -407 223t-563 -79zM1092 1432q-100 -152 -112 -356l182 284zM1222 1294q-106 -124 -145 -192t-37 -122l264 208zM1516 1200q144 -196 144 -336t-89 -239t-485 -299l4 -338q-20 -264 28 -345t142 -119l-38 -54q-120 26 -202 75
t-111 111t-5 332l14 246q-412 -292 -228 -566q70 -154 184 -250t335 -132t527 -5t602 347q260 342 308 610q126 310 -32 634q-260 -84 -532 36q-76 -130 -100 -272q274 -190 440 102l56 -22l16 -120q-132 -168 -72 -432q-118 94 -114 268q-170 -32 -328 38q-36 -62 108 -262
t150 -334t-96 -273t-344 -172t-398 112t-200 267t-21 226t76 162t163 94q18 150 178 286q56 34 152 70q10 204 112 412q-36 162 -344 142zM1358 1134l-288 -224q-24 -318 0 -486q302 168 371 241t75 189t-158 280zM1516 288q126 -24 197 -90t95 -179t-56 -165t-200 15
t-160 315q-196 -120 -76 -354t271 -283t292 7t199 173t-62 232t-173 224t-79 289q-118 40 -248 -184zM1506 184q-24 -118 21 -182t126 -87t82 92t-229 177z" />
    <glyph glyph-name="guillemotleft" unicode="&#xab;" horiz-adv-x="1101" 
d="M480 94q-48 17 -65.5 70t-90 122t-156 98t-111.5 94q19 48 123 71.5t184 99.5q62 59 91.5 65t47.5 6q17 0 -5.5 -40t-74 -103.5t-154.5 -102.5q56 -90 109 -137t106 -83t75.5 -52.5t22.5 -41.5q0 -26 -17 -41t-44 -20t-41 -5zM848 97.5q-27 -4.5 -41 -4.5
q-48 17 -65.5 70t-90 122t-166 110t-101.5 82q3 23 115 59t193 112q61 59 90.5 65t47.5 6q17 0 -5.5 -40t-74 -103.5t-181.5 -99.5q83 -93 136.5 -140t106.5 -83t75.5 -52.5t22.5 -41.5q-1 -26 -18 -41.5t-44 -20z" />
    <glyph glyph-name="macron" unicode="&#xaf;" 
d="M695 1200q98 25 140 25q11 0 32 -5.5t36 -10t19 -29.5q-1 -31 -16.5 -38t-37 -6t-32 -9t-43 -17.5t-128 -46t-123.5 -39t-92 -3.5t-82 -1t-82.5 -9t-136.5 -11q-36 2 -42 18t-33 8.5t-48.5 4t-25.5 61.5q0 14 16.5 34t42.5 24t97.5 -11t123 9.5t76 11.5t120 -10.5
t219.5 50.5z" />
    <glyph glyph-name="macron" unicode="&#x2c9;" 
d="M695 1200q98 25 140 25q11 0 32 -5.5t36 -10t19 -29.5q-1 -31 -16.5 -38t-37 -6t-32 -9t-43 -17.5t-128 -46t-123.5 -39t-92 -3.5t-82 -1t-82.5 -9t-136.5 -11q-36 2 -42 18t-33 8.5t-48.5 4t-25.5 61.5q0 14 16.5 34t42.5 24t97.5 -11t123 9.5t76 11.5t120 -10.5
t219.5 50.5z" />
    <glyph glyph-name="degree" unicode="&#xb0;" horiz-adv-x="2125" 
d="M680 441q-2 61 -59 72.5t-169.5 -49.5t-180.5 -128.5t-59.5 -131t91.5 -73t168 28t148 129t61 152.5zM632 -283q-239 -152 -449 -359.5t-326.5 -347.5t-69 -161t106.5 34t229.5 206.5t330.5 350t178 277.5zM2047 670q88 -23 103 -84t-38.5 -129.5t-145 -148.5
t-87.5 -116.5t63.5 -42t120 32.5t106.5 31l15 -27q-80 -76 -127.5 -124t-101 -61t-124 -13.5t-135.5 47.5t-55.5 120.5t85.5 120t143 95t69 89.5t-98 40t-369 -169t-445 -357.5t-421.5 -513t-463.5 -532.5t-305.5 -260t-141.5 -57q-57 11 -91 30t-44 48t-10 74q4 42 46 103
t166.5 214.5t336 349.5t343 306.5t207.5 143t183 110t86 137t-93.5 63.5t-154.5 -59t-156.5 -101t-127 -17t-132.5 -13t-179.5 -19t-114.5 99t-4 140.5t66 85t93.5 82t116.5 84t175 91.5t186.5 72.5t158 -17t78 -93.5t-19 -105t-15 -80t88 -34t112.5 -24.5t99 -30.5
t177 89.5t188.5 114t158.5 70.5t217.5 93.5t211.5 51.5z" />
    <glyph glyph-name="twosuperior" unicode="&#xb2;" horiz-adv-x="1250" 
d="M1210 1994q-5 -64 -47 -140t-149 -159t-198.5 -145.5t-115 -83t-25 -51.5t27 -59.5t58 -33t39 -29t-10.5 -38.5t-65 -16q-41 0 -87 31.5t-82 47t-79 -4t-92 -41t-103 -15.5t-80.5 20t-34.5 30t-8 29q25 12 51.5 23.5t63.5 38t75 34.5t82 3t102 27.5t179 114t198.5 146
t123.5 114.5t47 98t-35.5 62.5t-85 15t-128 -16t-173 -52.5t-110.5 -76.5t5 -63t66 -20t129 25.5q38 -37 37 -59.5t-56 -43t-131 -28t-133 9t-72.5 53t-11.5 71.5t28.5 74.5t92 85.5t159 79t170.5 49t199 25q95 -3 137.5 -43t42.5 -89z" />
    <glyph glyph-name="threesuperior" unicode="&#xb3;" horiz-adv-x="1116" 
d="M332 1151q-69 2 -99.5 26.5t-36.5 80.5q3 44 30 75.5t80.5 41t53.5 -41t44.5 -63t113.5 22.5t126.5 81t105 103t80.5 107.5t44.5 106t-33 72t-90.5 27.5t-68.5 22.5t-20.5 51t36.5 57t73 31.5t52 42.5t-11 41.5t-85 -6.5t-131.5 -39.5t-88.5 0t3.5 30t100 39.5t127.5 47
t118.5 27.5q73 -3 99 -22t26 -63.5t-44 -82.5t-72.5 -71.5t42.5 -55t91.5 -42.5t24.5 -72q-7 -58 -68.5 -145.5t-154 -176t-197 -151.5t-157 -80t-115.5 -21z" />
    <glyph glyph-name="acute" unicode="&#xb4;" 
d="M0 1039q4 27 19.5 42.5t44.5 20.5t78 27.5t91 67t76.5 69t45 48t47.5 24.5q33 -5 40.5 -13t12.5 -19q-1 -5 -10.5 -11.5t-17.5 -24.5t-35 -33t-70 -64.5t-77 -76.5t-63 -38t-43.5 -23t-36.5 -23.5t-52 -11.5q-31 6 -39 10.5t-11 28.5z" />
    <glyph glyph-name="mu" unicode="&#xb5;" horiz-adv-x="3323" 
d="M1621 2104q327 -2 543 -109t396.5 -344.5t281.5 -555.5t102 -820q-1 -444 -207.5 -884.5t-492 -602.5t-523.5 -162q-269 0 -482.5 82t-429 319t-328.5 570.5t-128 744.5q3 481 155.5 890t450.5 630.5t662 241.5zM442 359q-3 -245 38 -434q14 54 88.5 69t247.5 87
q52 91 187 102l80 -5q26 25 68 36t89.5 45.5t116.5 113.5h12q-3 -23 -46.5 -68.5t-74 -63.5t-30.5 -46q62 -212 112 -252.5t156.5 -63t370.5 4t378.5 49.5t154 69t53.5 101t8 104t-31.5 69.5t-88 42t-128 62t-87.5 69.5q-32 -59 -112.5 -106.5t-211 -60.5t-225 9t-139.5 87
l-19 19h-7l-20 -12l-6 12q0 11 64 46q58 41 58.5 111.5t-12.5 115.5l6 10l16 -17q16 -80 6 -139.5t-47 -80.5v-6q51 -47 150 -73.5t231 5t164 31.5t72 56q-20 41 -35 74t-8.5 101.5t23.5 175.5l-39 19q-29 -80 -64 -97l-33 32h-7v6q0 40 40 40v6q-33 0 -33 26l78 84l6 -6
q0 36 39 58h7v-6q0 -13 -20 -13v-6l20 -20l19 7l-6 32v6h6l33 -19l25 58l-32 7v6h13v7h-13l-7 -7l-6 14v52h-13q0 -26 -45 -46h-13v6q13 26 39 26l-7 20l-32 -6l-13 6q0 -65 -20 -65h-6v7l6 25q-17 65 -39 98v39q14 0 45 52v6q-31 -1 -31 -13l-40 13h-26v13q20 0 20 13
l-13 -7l-33 7q5 -65 33 -65v-25h-13q0 15 -39 38l-13 -7l-26 20l-13 -6v6l-39 -13v-13q52 0 52 -25l32 6l26 -39h-12l19 -26l-13 -13l-33 26v-6l13 -14v-13h-19l-46 33h-6v-13l13 -13l20 6v-19l-66 -7h-6l-43 11l26 10q-14 16 -12 40l-17 -9q-13 0 -13 19l-25 -38l-20 26v6
h13l-7 13v14l33 45v19q33 19 65 19h58l66 -25v6q-17 65 -46 65v-6l7 -33h-13q-11 0 -27 39l33 78v7q-35 54 -45 97h19v-13h6v13q-22 19 -188 52h-52v-6q98 0 98 -27q0 -52 -85 -71h-6l-7 -65l45 -20q53 18 53 33v13l-26 13l-33 -7v7q6 20 39 20q39 0 39 -46q0 -21 -33 -39
q0 -10 -71 -45l-13 6l-13 -6q-29 8 -46 51l14 59v7h-7l-13 -59l-32 6l-39 -52q0 -38 -100 -50q-55 29 -38.5 79t66.5 50l14 6v33q15 15 31 84l14 7l-14 52v32q0 58 104 58q32 85 85 85l195 19l39 -32v7q0 12 -20 12v20h20l13 -7l6 7q79 -58 124 -65l19 -26v-13h-6
q-22 26 -98 39q0 20 -32 20h-7q0 -20 -19 -20l-45 -7q-24 17 -7 33h-6q-118 0 -118 -20q20 0 52 7v-7q0 -16 -71 -25h-6l-14 12l7 13h-13l-32 -32h-7v19h-13l-26 -58h-13l-39 -6l-13 6q-45 0 -45 -91v-13h7q42 55 97 65l52 13q231 0 409 -175q30 -100 91 -183v7
q-26 35 -26 65h12q0 -21 40 -65v-7l-7 -6q15 0 33 -129l13 -79h-7v-6h19q0 19 13 19l39 -58l-12 -7l-7 7v-7l19 -19l79 58q23 92 64 92q0 38 13 38h6v-26l7 -32q-17 0 -26 -59v-32h-12l6 -13l-20 -26v-6q45 24 45 64l7 7l-13 13q15 0 20 32l26 -32l-7 -13v-7l7 -12l-46 -46
q-15 -15 -77 -33v7q-66 -26 -66 -39q-14 -59 -58 -59l-7 -6l-19 6v7l13 39h6l27 -19h6q5 71 26 71l6 -7v7l-6 6l6 7h-6q-15 0 -32 -39q-68 -9 -73 -76t-18.5 -152.5t5.5 -161t76 -116t133.5 -80t159.5 -58.5q89 62 196 43.5t215 -105.5v108q-7 539 -192 942t-432.5 567.5
t-621.5 161.5q-385 -30 -649.5 -261t-404 -675.5t-114.5 -721.5zM1902 1847l13 -13h143q45 0 45 -52q156 -31 156 -52q0 -24 45 -39v-13l45 6l59 -117l26 -32l-6 -19h-13q-39 81 -56.5 109t-80.5 40q0 25 -45 65q-19 -29 19 -65v-13h-6q-46 25 -46 59l7 25h-7
q-80 27 -108 23.5t-54 -36.5l-10 25q4 26 36 27q8 25 -9.5 36t-139.5 3q-34 0 -39 20v6zM1863 1684q72 -16 117 -71q26 0 29 -48.5t39 -97.5t48 -49l14 -19h-20l-19 13h-7l13 -20l-6 -7q19 -6 19 -38q-20 7 -52 71v39h-6l-10 -10q-12 36 -28 67t-12 45.5t0 28.5t-52 49.5
t-87 27.5v13zM2233 1639h33l-33 -45q0 13 -39 25v13l39 -13v20zM2285 1632h19q16 0 20 -45h-20v26l-13 -13l7 -13l-7 -20l33 -71v-26h-13l-7 26h-6q0 -41 -20 -45l-6 65h6l-12 26l12 25q-26 0 -26 13v27h7l19 -13zM2135 1619v-39q25 -2 32.5 -13.5t0.5 -18.5
q33 -4 32.5 -24.5t-8 -28t7.5 -25.5l-13 -6q-17 26 -11.5 39t-11 36t-29 29t-19.5 39zM2318 1574h6q16 0 25 -78l14 7l19 -20v-7h-19l13 -38v-7l-13 -13h-14l7 33q-38 66 -38 123zM1480 1548l-7 -13l46 7v6h-39zM1440 1522v-13l20 19zM2441 1522q12 0 19 -78l7 -13l-14 -19
l7 -7l-13 -72l6 -84l-6 -20l13 -103q-13 -39 -45 -39v-7l7 -32h-14q-10 0 -19 46l-7 6l26 65l14 12h6v-6l-6 -39l6 -19l13 13l-7 39l7 39l-7 -6l-45 12q0 116 -40 143l-6 26v20h20v-27l19 -25l7 25l-7 13l7 20h12l7 -33v-6l-13 -45q5 -104 13 -104l14 -7q15 21 19 59l-7 84
l7 32l-13 14l6 6l-6 13v20h6l13 -7v7l-13 13v6l7 7l-7 12v14zM1409 1503v-7h12l7 13zM2220 1444h13v-26l-13 -13v39zM1343 1366q-6 -21 -6 -27t16 -9.5t49 42.5h-14q-29 -10 -45 -6zM1830 1372v-12q16 0 46 -27h6v14l-25 25h-27zM1525 1366v-6l13 -13v6zM2266 1353
q32 -9 32 -45v-13l-7 -59l20 -32v-13q-23 0 -39 58l6 32h-6v46l-13 20zM1973 1308l-19 -27h19l7 20v7h-7zM1525 1269v-7l-6 -13l32 -26l-7 -13l7 -19q0 -14 -45 -52q0 -26 -20 -26h-13l-6 19q45 8 45 45l-20 14v-7l14 -13h-14l-38 20l-10 -43l-38 2q-20 29 -11 54h-19v19
l39 13l6 -7l7 27h6l20 -13v6l13 -6h6v13l13 -7v13q-39 23 -71 16t-46 -3v6q0 20 50 22t106 -34zM1305 1287q0 -16 32 -18v-33l-20 -7v14q-44 -8 -30 -23.5t50 3.5l14 6l-1 -19l-28 -36l-32 -3q-51 14 -58 56q11 51 73 60zM2194 1281h6q15 0 20 -32q-26 10 -26 20v12z
M1681 1249v-13l26 7v6h-26zM1467 1217v-7l19 -12v12zM1999 1210v-33h7l13 27v6h-20zM1720 1198v-7l58 -14v7l-39 14h-19zM1798 1177v-6l20 -13v7zM1343 1158v-6q-6 -26 -3.5 -85.5t25.5 -139.5t37 -93v-20h-7q-75 159 -71 332zM2155 1146l7 -14v-6h-20v6zM2285 1061v-13h13
l26 78q-16 0 -33 -59zM1681 1113l52 -26v-7l-7 -6l7 -13v-7h-13q-44 24 -52 52zM2272 1009v-13l19 19zM1857 957l11 -23l-11 -16l6 -13v-6l-20 19v6l10 14h-16v13zM2038 918q0 -13 -26 -32v-39h7l13 25l-7 20l19 19v7h-6zM1850 886h13l1 -20l-14 -7v27zM1882 866l8 -9
l-12 -14l-9 10zM1992 840l-6 -13h6l20 7v6h-20zM1934 782v-7l20 20h-7zM1440 775h7l20 -19v-26h-7l-20 38v7zM1882 749l13 -13v-13l-6 -13l-20 6v7zM1915 743h6l13 -33h-6q-19 5 -26 26zM1778 671l13 -13q-19 0 -19 -39h-6l-13 14v12zM1850 664v-6l-13 -13h-7v13zM1733 639
l13 -13v-14q-13 0 -13 -19h-7l-32 7v-19q-31 0 -111 31v7q104 0 104 14l14 -7zM1454 418l-14 -20q40 -60 156 -84t234.5 -1.5t133.5 57.5q-74 -13 -118.5 -26t-108.5 -16.5t-133.5 15t-149.5 75.5zM2522.5 202.5q23.5 -31.5 69 -96t72.5 -184t10.5 -222t-54 -217.5t-19 -127
t60 50.5t103.5 291.5q66 233 77 370.5t-50.5 182t-130 64.5t-117.5 4.5t-47 -50.5t25.5 -66.5zM2461 67.5q-18 -61.5 -79 -111.5t-364.5 -82.5t-442 -28t-212.5 30.5t-108.5 124.5t-67.5 170.5l-6 13h-13q-39 -4 -39 -19q24 -19 39 -89t76.5 -184t137.5 -103q263 -19 447 -3
t383 50t279.5 109t68.5 121.5t-72 134.5q-9 -72 -27 -133.5zM791 -415.5q15 -166.5 33.5 -233.5t38.5 -108q71 144 168 149t164.5 18t141.5 -30q27 13 -2.5 68t-25.5 138t-13.5 120t-12.5 58q-110 184 -178 376q-66 20 -133.5 10t-105 -57t-64 -194.5t-11.5 -314zM591 -65
q93 -111 105.5 -255t25.5 -284.5t31 -162.5q101 -142 151.5 -197.5t1.5 47.5t-72 104q-81 321 -84.5 508.5t41.5 320.5q-94 -37 -200 -81zM1538 -250q-175 0 -212 15q27 -88 19 -165.5t8 -113t31 -79t5 -56t26 -101.5q231 10 287.5 44t121 50t208 16t221 3t121.5 -6.5
t93 -9.5t90 98.5t72.5 183t20.5 177t-57 180.5q-26 -25 -73.5 -63.5t-110.5 -63.5t-180.5 -47t-307 -45.5t-383.5 -16.5zM487 -121q64 -306 130 -428.5t77 -122.5q0 64 -15.5 239t-46.5 239.5t-69 106t-76 -33.5zM1506 -516h6v-21l-13 -12l-13 12zM1067.5 -634
q-61.5 0 -108.5 -45t-58 -80t34.5 -136.5t75 -170.5t245.5 -151t445 -79l142 14q-38 56 -35 119.5t32 91.5t25 44.5t-15 16.5q-49 -26 -78 -26l-71 20q-56 0 -135.5 -49t-100.5 -49t-148 -33h-32l-39 46l-39 -6q-20 0 -39 39l-13 -7q-27 9 -39 32v40l78 116v7h-20l-71 -20
q-34 0 -52 52q0 21 52 27q10 17 111 84q77 0 162 -26v13l-33 90q-67 37 -140.5 31.5t-135 -5.5zM1900 -681q-124 -11 -169 -43.5t-224 -50.5l-72 -5l123 -55l84 -38q67 49 167 61t210 20.5t255.5 -6t193.5 7t44 111.5l-32 -6q-150 19 -303 17t-277 -13zM2182 -825
q-111 10 -244 -3t-201.5 -31.5t-68.5 -27.5v-13l39 -45v-7h-13q-20 0 -62 36t-152 84.5t-178 59t-106 -9.5t-93 -78l13 -7l156 46h52q23 -20 45 -20v-26h-6q-120 0 -156 -65q-65 -59 -65 -104h13q80 73 150 104l12 13h59q35 0 45 -39l-12 -6l-46 12q-88 -20 -124 -58
l-32 -33v-6l26 -19q47 30 176 52l19 6h12v-19l-149 -39h-6v-20q0 -19 58 -26q184 43 201 65q79 58 143 58l91 -12q22 0 59 26h32q12 0 31 -45q184 27 300 41.5t183 -16.5l-22 -18q-41 24 -215.5 4.5t-246.5 -32.5q-10 -24 -34.5 -57t-27 -75t31 -68.5t83.5 -17t204.5 97
t229 165.5t128.5 176q-50 -13 -135.5 -13t-196.5 10zM1598 996.5q10 0.5 12.5 -18.5t13.5 -27.5t23 -3.5t8 43q19 0 39 -39h-7l7 -13v-7q-17 0 -52 -39q-13 0 -19 7q-5 -23 -15 -23l-13 13l5 12q-56 -2 -56 20q34 7 40 24.5t5 34t9 17zM1499 956q13 1 19.5 -5.5t6.5 -26.5
q-23 7 -26 32zM1556 856l23 -9l29 9l84 -24l5 -15l-24 -2l-80 10l-41 -8l-26 15v-7l-20 7v15z" />
    <glyph glyph-name="periodcentered" unicode="&#xb7;" horiz-adv-x="735" 
d="M485 635q-6 -66 -35 -102.5t-112 -40.5q-70 4 -92 29t-26 85q0 64 24 101t96 45q58 -2 100.5 -31.5t44.5 -85.5z" />
    <glyph glyph-name="periodcentered" unicode="&#x2219;" horiz-adv-x="735" 
d="M485 635q-6 -66 -35 -102.5t-112 -40.5q-70 4 -92 29t-26 85q0 64 24 101t96 45q58 -2 100.5 -31.5t44.5 -85.5z" />
    <glyph glyph-name="cedilla" unicode="&#xb8;" 
d="M431 -243q0 -40 -27 -81.5t-80 -66.5t-136 -25q-63 0 -125.5 27.5t-62.5 61.5q6 19 21 23t64.5 -12t128.5 -0.5t75.5 85.5t-64.5 71.5t-64.5 38t23 65t45.5 57.5l77 -1q-67 -91 -3.5 -101.5t96 -55.5t32.5 -86z" />
    <glyph glyph-name="onesuperior" unicode="&#xb9;" horiz-adv-x="883" 
d="M973 2083q0 -28 -153 -186t-274.5 -274t-148.5 -145.5t-5 -73t-44.5 -81t-110 -48t-60.5 -10.5q-25 0 -37.5 13.5t-12.5 38.5q7 51 44.5 63.5t61 73t67.5 107.5t166 158t138 128t9.5 42.5t57 65t124.5 74t88.5 73t59.5 40.5q24 -15 30 -59z" />
    <glyph glyph-name="guillemotright" unicode="&#xbb;" horiz-adv-x="1112" 
d="M749 649q81 -76 185 -99.5t123 -71.5q-28 -65 -112 -94t-156.5 -98t-90 -122t-64.5 -70q-15 0 -42 5t-43.5 20t-17.5 41q0 25 22.5 41.5t75.5 52.5t106.5 83t109.5 137q-104 39 -155 102.5t-74 103.5t-6 40q19 0 48 -6t91 -65zM204 159q0 25 22.5 41.5t75.5 52.5
t106.5 83t136.5 140q-131 36 -182 99.5t-74 103.5t-6 40q19 0 48 -6t91 -65q80 -76 192.5 -112t114.5 -59q-8 -41 -101.5 -82t-166 -110t-90 -122t-65.5 -70q-14 0 -41 4.5t-43.5 20t-17.5 41.5z" />
    <glyph glyph-name="onequarter" unicode="&#xbc;" horiz-adv-x="2036" 
d="M1891 304q0 -22 -35 -47t-95 -34.5t-128.5 12.5t-110.5 -12.5t-61 -96.5t-67 -74q-28 0 -49 31.5t-8 69.5t30.5 71t-4.5 40t-63 5t-85.5 -16.5t-91.5 -3t-61 65.5q0 28 36 43q44 22 85 65t155 185.5t180.5 232t105 105.5t71.5 16q24 -5 35 -34t-34 -81.5t-122.5 -137
t-168 -182.5t-111 -128.5t27.5 -35t87 -13t56.5 25t41.5 73.5t41.5 57.5t37.5 20t52 -13.5t19 -53.5t-32 -85t39.5 -51t109.5 14.5t76 11.5t41 -45.5zM1845 2072q93 -16 95 -177q-17 -26 -98 -50.5t-393.5 -359.5t-655 -857t-393 -620.5t-108.5 -110.5q-66 10 -74 87
q5 63 70.5 165.5t393.5 567.5t541 710.5t333.5 365.5t158.5 179t61 71t69 29zM235 1134q-25 0 -37.5 13.5t-12.5 37.5q7 52 44.5 64t61 73t67.5 107.5t166 158t138 128t9.5 42.5t57 65.5t124.5 73.5t88.5 73t59.5 40q24 -14 30 -58q0 -28 -31.5 -56.5t-80 -77.5
t-121.5 -129.5t-181.5 -179.5t-148.5 -145.5t-18 -90.5t-44.5 -81t-110 -47.5t-60.5 -10.5z" />
    <glyph glyph-name="onehalf" unicode="&#xbd;" horiz-adv-x="2170" 
d="M1845 2072q93 -16 95 -177q-17 -26 -98 -50.5t-393.5 -359.5t-655 -857t-393 -620.5t-108.5 -110.5q-66 10 -74 87q5 63 70.5 165.5t393.5 567.5t541 710.5t333.5 365.5t158.5 179t61 71t69 29zM235 1134q-25 0 -37.5 13.5t-12.5 37.5q7 52 44.5 64t61 73t67.5 107.5
t166 158t138 128t9.5 42.5t57 65.5t124.5 73.5t88.5 73t59.5 40q24 -14 30 -58q0 -28 -31.5 -56.5t-80 -77.5t-121.5 -129.5t-181.5 -179.5t-148.5 -145.5t-18 -90.5t-44.5 -81t-110 -47.5t-60.5 -10.5zM1525 62q-41 0 -87 31.5t-82 46.5t-79 -4.5t-92 -40.5t-103.5 -15.5
t-80.5 19.5t-34 30t-8 25t3 12q22 4 48 15.5t63.5 38t75.5 34.5t82 3t75.5 12t97 59.5t225 161.5t207 181t47 98t-31.5 47.5t-85 15.5t-109.5 -5t-118.5 -28t-118 -44t-71.5 -65t5.5 -62.5t65.5 -20.5t128.5 25q38 -36 37.5 -59t-55.5 -43.5t-120 -24t-133 9t-83.5 49
t-12 71.5t28.5 74.5t92.5 86t159 79t170.5 49t199 24.5q95 -3 137 -43t42 -88q-4 -65 -46.5 -141t-149 -158.5t-198 -145.5t-115 -83.5t-25 -51t27 -59t58 -33t39 -29.5t-10.5 -39t-65 -15z" />
    <glyph glyph-name="threequarters" unicode="&#xbe;" horiz-adv-x="2081" 
d="M1897 2072q93 -16 95 -177q-17 -26 -98 -50.5t-393.5 -359.5t-655 -857t-393 -620.5t-108.5 -110.5q-66 10 -74 87q5 63 70.5 165.5t393.5 567.5t541 710.5t333.5 365.5t158.5 179t61 71t69 29zM321 1102q-69 2 -99.5 26t-36.5 78q3 42 30 72.5t80.5 40t53.5 -39.5
t44.5 -61t113.5 22t126.5 78.5t105 100t80.5 104t44.5 102.5t-33 69.5t-90.5 26t-68.5 22t-20.5 50t36.5 55.5t73 30t52 41t-11 40.5t-85 -6.5t-131.5 -38t-88.5 0t3.5 29t100 38t127.5 45t118.5 27q73 -2 99 -20.5t26 -62t-44 -80t-72.5 -69.5t42.5 -53.5t91.5 -41
t24.5 -69.5q-7 -56 -68.5 -141t-154 -170.5t-197 -146.5t-157 -77t-115.5 -21zM1921 304q0 -22 -35 -47t-95 -34.5t-128.5 12.5t-110.5 -12.5t-61 -96.5t-67 -74q-28 0 -49 31.5t-8 69.5t30.5 71t-4.5 40t-63 5t-85.5 -16.5t-91.5 -3t-61 65.5q0 28 36 43q44 22 85 65
t155 185.5t180.5 232t105 105.5t71.5 16q24 -5 35 -34t-34 -81.5t-122.5 -137t-168 -182.5t-111 -128.5t27.5 -35t87 -13t56.5 25t41.5 73.5t41.5 57.5t37.5 20t52 -13.5t19 -53.5t-32 -85t39.5 -51t109.5 14.5t76 11.5t41 -45.5z" />
    <glyph glyph-name="questiondown" unicode="&#xbf;" horiz-adv-x="1646" 
d="M1098 90q-113 -83 -124 -125.5t-5.5 -88t-15 -89.5t-59 -60t-92.5 -2t-118.5 35t-171.5 4.5t-198.5 -68.5t-98.5 -129.5t18.5 -114t120 -89.5t158.5 -39.5t65.5 62t-21.5 66t11 46t96.5 -25.5t61 -116t-59.5 -119t-173 -57q-176 1 -198 68t-57.5 40t-104 24t-74.5 171
q0 73 28.5 139.5t81 120.5t151 93t203 48t177 14.5t103 49.5t81.5 91.5t106 73.5t109 -23zM1471 579q0 -36 -36 -65t-105 -55t-120 -15t-58 69t69 97t158 39q88 -26 92 -70z" />
    <glyph glyph-name="Agrave" unicode="&#xc0;" horiz-adv-x="1756" 
d="M1520 946q72 152 39 228t-82 92.5t-103 6t-218 -98.5t-264 -176t-185 -197t-207 -240.5t-159 -254t-27 -180.5t56 -55t148 38.5t288 152t347 258.5t367 426zM1862 176q-182 -116 -383 -154t-289 -24t-119 81t-19 147q-90 -54 -175 -77t-184 -69t-199 -101t-180 -59
q-88 4 -121 41t-33 176q0 103 71 231.5t157 246t197 252.5t212 235t212 172t230 127t153.5 60.5t62.5 5.5q41 -1 95 -21t115 -78t70 -131t-67 -227t-118 -213t-9 -61t30 -38t-68.5 -130t-139 -157t-85.5 -136t28 -110t119 -27t175 39t159 51t103 -52zM1157 2042.22
q4.7998 13.2002 14.4004 22.8008q9.59961 9.59961 48 15.5996q44.4004 -1.2002 57.001 -29.4004q12.5996 -28.2002 54 -57.6006t92.4014 -82.8008q51 -53.4004 109.801 -80.4004q58.8008 -27.001 93.6016 -33.001q34.7998 -6 53.4004 -24.5996
q18.5996 -18.6006 23.4004 -51.001q-3.60059 -28.7998 -13.2002 -34.2002q-9.60059 -5.40039 -46.8008 -12.6006q-37.2002 0 -63.6006 13.8008q-26.4004 13.7998 -43.2002 28.2002q-16.8008 14.4004 -51.6006 27.6006q-34.8008 13.2002 -76.2012 45.5996
q-41.4004 32.4004 -93.001 91.8018q-51.6006 59.4004 -83.4004 77.4004q-31.8008 18 -42.001 39.6006q-10.2002 21.5996 -21.5996 29.4004q-11.4004 7.7998 -11.4004 13.7998z" />
    <glyph glyph-name="Aacute" unicode="&#xc1;" horiz-adv-x="1757" 
d="M1520 946q72 152 39 228t-82 92.5t-103 6t-218 -98.5t-264 -176t-185 -197t-207 -240.5t-159 -254t-27 -180.5t56 -55t148 38.5t288 152t347 258.5t367 426zM1862 176q-182 -116 -383 -154t-289 -24t-119 81t-19 147q-90 -54 -175 -77t-184 -69t-199 -101t-180 -59
q-88 4 -121 41t-33 176q0 103 71 231.5t157 246t197 252.5t212 235t212 172t230 127t153.5 60.5t62.5 5.5q41 -1 95 -21t115 -78t70 -131t-67 -227t-118 -213t-9 -61t30 -38t-68.5 -130t-139 -157t-85.5 -136t28 -110t119 -27t175 39t159 51t103 -52zM1273 1766.81
q5.59961 32.4004 27.3008 51.001q21.7002 18.5996 62.3008 24.5996t109.202 33.001q68.6006 27 127.402 80.4004q58.8008 53.4004 107.102 82.8008t63.001 57.6006t66.501 29.4004q46.2012 -6 56.7012 -15.5996q10.5 -9.60059 17.5 -22.8008q-1.39941 -6 -14.7002 -13.7998
q-13.2998 -7.80078 -24.5 -29.4004q-11.2002 -21.6006 -49.001 -39.6006t-98.002 -77.4004q-60.2012 -59.4014 -107.802 -91.8018q-47.6006 -32.3994 -88.2012 -45.5996t-60.9014 -27.6006q-20.2998 -14.4004 -51.1006 -28.2002q-30.8008 -13.8008 -72.8018 -13.8008
q-43.4004 7.2002 -54.6006 12.6006t-15.4004 34.2002z" />
    <glyph glyph-name="Acircumflex" unicode="&#xc2;" horiz-adv-x="1756" 
d="M1520 946q72 152 39 228t-82 92.5t-103 6t-218 -98.5t-264 -176t-185 -197t-207 -240.5t-159 -254t-27 -180.5t56 -55t148 38.5t288 152t347 258.5t367 426zM1862 176q-182 -116 -383 -154t-289 -24t-119 81t-19 147q-90 -54 -175 -77t-184 -69t-199 -101t-180 -59
q-88 4 -121 41t-33 176q0 103 71 231.5t157 246t197 252.5t212 235t212 172t230 127t153.5 60.5t62.5 5.5q41 -1 95 -21t115 -78t70 -131t-67 -227t-118 -213t-9 -61t30 -38t-68.5 -130t-139 -157t-85.5 -136t28 -110t119 -27t175 39t159 51t103 -52zM1989.21 1793
q61.2002 -69 61.2002 -116q0 -14 -6 -26q-93.6006 46 -163.201 107t-96.001 163q-129.602 -28 -222.002 -82q-92.4014 -54 -150.002 -107t-114.001 -51.5t-76.8008 24.5t-20.4004 56q0 81 85.2012 77q97.2012 -5 223.202 61t183.602 133t148.802 75
q57.6006 -28 62.4004 -126t84.001 -188z" />
    <glyph glyph-name="Atilde" unicode="&#xc3;" horiz-adv-x="1756" 
d="M1520 946q72 152 39 228t-82 92.5t-103 6t-218 -98.5t-264 -176t-185 -197t-207 -240.5t-159 -254t-27 -180.5t56 -55t148 38.5t288 152t347 258.5t367 426zM1862 176q-182 -116 -383 -154t-289 -24t-119 81t-19 147q-90 -54 -175 -77t-184 -69t-199 -101t-180 -59
q-88 4 -121 41t-33 176q0 103 71 231.5t157 246t197 252.5t212 235t212 172t230 127t153.5 60.5t62.5 5.5q41 -1 95 -21t115 -78t70 -131t-67 -227t-118 -213t-9 -61t30 -38t-68.5 -130t-139 -157t-85.5 -136t28 -110t119 -27t175 39t159 51t103 -52zM1236 2049
q92.4014 26 110.401 -25t82.2002 -101.5q64.2012 -50.5 153.602 46.5q89.4014 97 216.603 107q64.8008 -1 121.201 -43.5t85.8008 -98t36.6006 -93.5q-64.8008 -22 -94.8008 13t-69.6006 73t-93.6016 23.5q-54 -14.5 -127.801 -92t-161.401 -78.5q-85.2012 0 -135.002 41
t-84.001 110.5t-40.2002 117.5z" />
    <glyph glyph-name="Adieresis" unicode="&#xc4;" horiz-adv-x="1756" 
d="M1520 946q72 152 39 228t-82 92.5t-103 6t-218 -98.5t-264 -176t-185 -197t-207 -240.5t-159 -254t-27 -180.5t56 -55t148 38.5t288 152t347 258.5t367 426zM1862 176q-182 -116 -383 -154t-289 -24t-119 81t-19 147q-90 -54 -175 -77t-184 -69t-199 -101t-180 -59
q-88 4 -121 41t-33 176q0 103 71 231.5t157 246t197 252.5t212 235t212 172t230 127t153.5 60.5t62.5 5.5q41 -1 95 -21t115 -78t70 -131t-67 -227t-118 -213t-9 -61t30 -38t-68.5 -130t-139 -157t-85.5 -136t28 -110t119 -27t175 39t159 51t103 -52zM1324 1714l-4 14
q0 12 20 25q28 19 32 46t40 33q104 -24 278 -42q-16 -38 -87 -36t-165 -90q-44 2 -73 21t-41 29zM1814 1830q120 -40 134 -98q-76 -8 -90 -31t-60 -35q-44 10 -63 22t-22 49t14 61t57 32h30z" />
    <glyph glyph-name="Aring" unicode="&#xc5;" horiz-adv-x="1756" 
d="M1520 946q72 152 39 228t-82 92.5t-103 6t-218 -98.5t-264 -176t-185 -197t-207 -240.5t-159 -254t-27 -180.5t56 -55t148 38.5t288 152t347 258.5t367 426zM1862 176q-182 -116 -383 -154t-289 -24t-119 81t-19 147q-90 -54 -175 -77t-184 -69t-199 -101t-180 -59
q-88 4 -121 41t-33 176q0 103 71 231.5t157 246t197 252.5t212 235t212 172t230 127t153.5 60.5t62.5 5.5q41 -1 95 -21t115 -78t70 -131t-67 -227t-118 -213t-9 -61t30 -38t-68.5 -130t-139 -157t-85.5 -136t28 -110t119 -27t175 39t159 51t103 -52zM1623 1944
q-66 0 -111.5 -62.5t-38 -104t50 -57t93.5 -5t57 37t36 57.5t4 82.5t-91 51.5zM1810 1877q-7 -102 -46 -146t-91 -60t-111 -16q-58 1 -103.5 22.5t-67 57.5t-25.5 113q3 79 52 139.5t154 66.5q114 -1 174.5 -59.5t63.5 -117.5z" />
    <glyph glyph-name="AE" unicode="&#xc6;" horiz-adv-x="2481" 
d="M1627 786q127 -10 191 0t99 28t84 68t121.5 152.5t176 207t178.5 164.5t80 104t-60 18t-125 -79t-200 -158t-255 -207t-290 -298zM1815 651q-178 -17 -397 -49q-246 -200 -429 -335t-273 -175t-155 -65t-135 -21h-44q-76 26 -113 68t-63 178q6 114 23 164t45 110t88 118
t110 63t80 -33t0 -98t-85 -100t-63 -117t22 -125t104.5 -44t222.5 84.5t280.5 171t218.5 166.5q-290 10 -295 55t37 70t422 37q216 182 456 395t392 335t312 252h60q66 -34 111 -87t-8 -129q299 165 523 165q112 -3 181.5 -42.5t94 -95t24.5 -147.5q0 -62 -55.5 -155
t-145 -158.5t-227.5 -98.5t-232.5 -16t-133 88.5t-29.5 139t62 109.5t110 45.5t76 -42.5q-20 -60 -62.5 -54t-20 -44t88 -76.5t153 -21.5t167.5 50.5t118.5 120.5t19 152t-112.5 106.5t-246.5 -8t-428 -216.5t-546.5 -549q536 54 874 8l40 -44l-10 -30q-62 -39 -182 -30.5
t-335.5 -1.5t-285.5 -18t-212 -28q-199 -185 -335 -310.5t-144 -148.5t74.5 -20t293.5 -15.5t405.5 62.5t232.5 27t-194.5 -146t-427.5 -77.5t-265 -1.5t-164 -22h-60q-77 17 -91.5 76.5t10.5 114.5t153 165t321 299z" />
    <glyph glyph-name="Ccedilla" unicode="&#xc7;" horiz-adv-x="1398" 
d="M882.205 -405.603q0 -48.001 -32.4004 -97.8018q-32.4004 -49.7998 -96.001 -79.8008q-63.6006 -30 -163.201 -30q-75.6006 0 -150.602 33q-75.001 33.001 -75.001 73.8008q7.2002 22.8008 25.2002 27.6006t77.4004 -14.4004q59.4014 -19.2002 154.202 -0.599609
q94.8008 18.5996 90.6006 102.601t-77.4004 85.8008q-73.2012 1.80078 -77.4014 45.6006q-4.19922 43.8008 27.6006 78.001q31.8008 34.2002 54.6006 69.001l92.4014 -1.2002q-80.4014 -109.201 -4.2002 -121.801q76.2002 -12.6006 115.201 -66.6016q39 -54 39 -103.2z
M1542 265q-12 -66 -88 -109t-184.5 -95.5t-262 -109t-313.5 -56.5q-122 3 -235.5 30.5t-190 126.5t-78.5 220q3 140 78.5 341t242 370.5t386.5 309.5t447.5 224.5t366.5 84.5q112 -3 181.5 -42.5t94 -95t24.5 -147.5q0 -62 -55.5 -155t-188.5 -188.5t-256.5 -145.5
t-202 -54.5t-138.5 27t-87 97t0 146t80 122.5t110 45.5t76 -42.5q-20 -60 -62.5 -54t-40.5 -69.5t48.5 -106t173.5 4t250.5 110t162 150.5t19 152t-139 96t-246.5 -8t-318.5 -111.5t-409 -259t-304 -374.5t-77.5 -357.5t93 -212t245 -64.5t331.5 47.5t257 105.5t133 66.5
t77.5 -19.5z" />
    <glyph glyph-name="Egrave" unicode="&#xc8;" horiz-adv-x="1414" 
d="M1646 1309q0 -87 -26.5 -160t-77.5 -129.5t-106.5 -97t-103 -40.5t-32.5 49.5t63 81.5t88 86t48 137t-29.5 136t-117.5 71t-193.5 3.5t-285.5 -121t-237 -180t-114.5 -134t-70.5 -31.5t-3.5 113t75.5 123.5t140 101.5t179 122t218.5 105.5t224.5 53.5q100 -3 181 -39
t130.5 -100.5t49.5 -150.5zM1506 282q37 -47 -29 -111.5t-147 -99.5t-177 -70t-191.5 -55t-197.5 -29q-117 2 -166 17t-126 41t-134 67t-134 132q3 89 34 112.5t85.5 56.5t120.5 81t92.5 106.5t-8.5 76t-29 53t-15.5 50.5t-28.5 55t21.5 68t72.5 37.5t73 -15t60.5 29
t88.5 151.5t100.5 181t85 64t23 -110t-63.5 -150.5t-88.5 -129t-13.5 -96.5t25.5 -71t39.5 -47.5t85.5 2.5t84.5 20t81.5 34.5t74.5 20.5t39 -26.5t-29.5 -59t-109.5 -80.5t-188.5 -51.5t-185.5 28.5q-44 -89 -74 -135t-79.5 -90.5t-87 -69.5t-36 -76t93 -76.5t170 -31.5
t201.5 -1.5t257.5 52.5t179.5 69t150 76zM1029 2104.57q4.40039 12.0996 13.1992 20.8994q8.80078 8.7998 44 14.2998q40.6982 -1.10059 52.248 -26.9492q11.5498 -25.8496 49.499 -52.7988q37.9492 -26.9502 84.6982 -75.8984q46.749 -48.9492 100.647 -73.6982
q53.8994 -24.75 85.7988 -30.25t48.9482 -22.5488q17.0498 -17.0498 21.4502 -46.749q-3.2998 -26.3994 -12.1006 -31.3496q-8.79883 -4.9502 -42.8984 -11.5498q-34.0996 0 -58.2988 12.6494q-24.1992 12.6504 -39.5996 25.8496q-15.3994 13.2002 -47.2988 25.2998
q-31.8984 12.0996 -69.8477 41.7988t-85.248 84.1484q-47.2998 54.4482 -76.4492 70.9482q-29.1484 16.5 -38.499 36.2988q-9.34961 19.7998 -19.7988 26.9492q-10.4502 7.15039 -10.4502 12.6504z" />
    <glyph glyph-name="Eacute" unicode="&#xc9;" horiz-adv-x="1399" 
d="M1604 1310q-26 -98 -65 -139t-90 -47t-65 29t-7 53t41 59t-5 90t-108 74t-135 16t-103 -45t-43 -96t25 -129t77 -117t90 -93t47 -82t-29 -76t-109 -65t-183 -100t-213 -126t-174 -103t-95 -120t24 -122t146 -70t185 -13t174 25t175 55t312 94q6 -100 -85 -140t-184 -85
t-211 -82t-284 -47q-130 6 -209 18t-152 56t-108 108t-43 144q4 72 43 147t126 151t218 125t228 103t148 101t34 101t-87 105t-88 130t-7 138t27 101t62 77t110 58t192 31l116 -8q164 -44 218 -112t64 -172zM1348 1767.81q4.7998 32.4004 23.4004 51.001
q18.5996 18.5996 53.4004 24.5996t93.6006 33.001q58.8008 27 109.201 80.4004t91.8008 82.8008q41.4014 29.4004 54.001 57.6006q12.6006 28.2002 57.001 29.4004q39.5996 -6 48.6006 -15.5996q9 -9.60059 15 -22.8008q-1.2002 -6 -12.6006 -13.7998
q-11.4004 -7.80078 -21 -29.4004q-9.60059 -21.6006 -42.001 -39.6006q-32.3994 -18 -84 -77.4004q-51.6006 -59.4014 -92.4014 -91.8018q-40.8008 -32.3994 -75.6006 -45.5996q-34.8008 -13.2002 -52.2002 -27.6006q-17.4004 -14.4004 -43.8008 -28.2002
q-26.4004 -13.8008 -62.4004 -13.8008q-37.2012 7.2002 -46.8008 12.6006q-9.60059 5.40039 -13.2002 34.2002z" />
    <glyph glyph-name="Ecircumflex" unicode="&#xca;" horiz-adv-x="1413" 
d="M1646 1309q0 -87 -26.5 -160t-77.5 -129.5t-106.5 -97t-103 -40.5t-32.5 49.5t63 81.5t88 86t48 137t-29.5 136t-117.5 71t-193.5 3.5t-285.5 -121t-237 -180t-114.5 -134t-70.5 -31.5t-3.5 113t75.5 123.5t140 101.5t179 122t218.5 105.5t224.5 53.5q100 -3 181 -39
t130.5 -100.5t49.5 -150.5zM1506 282q37 -47 -29 -111.5t-147 -99.5t-177 -70t-191.5 -55t-197.5 -29q-117 2 -166 17t-126 41t-134 67t-134 132q3 89 34 112.5t85.5 56.5t120.5 81t92.5 106.5t-8.5 76t-29 53t-15.5 50.5t-28.5 55t21.5 68t72.5 37.5t73 -15t60.5 29
t88.5 151.5t100.5 181t85 64t23 -110t-63.5 -150.5t-88.5 -129t-13.5 -96.5t25.5 -71t39.5 -47.5t85.5 2.5t84.5 20t81.5 34.5t74.5 20.5t39 -26.5t-29.5 -59t-109.5 -80.5t-188.5 -51.5t-185.5 28.5q-44 -89 -74 -135t-79.5 -90.5t-87 -69.5t-36 -76t93 -76.5t170 -31.5
t201.5 -1.5t257.5 52.5t179.5 69t150 76zM1571.21 1826q61.2002 -69 61.2002 -116q0 -14 -6 -26q-93.6006 46 -163.201 107t-96.001 163q-129.602 -28 -222.002 -82q-92.4014 -54 -150.002 -107t-114.001 -51.5t-76.8008 24.5t-20.4004 56q0 81 85.2012 77
q97.2012 -5 223.202 61t183.602 133t148.802 75q57.6006 -28 62.4004 -126t84.001 -188z" />
    <glyph glyph-name="Edieresis" unicode="&#xcb;" horiz-adv-x="1414" 
d="M1646 1309q0 -87 -26.5 -160t-77.5 -129.5t-106.5 -97t-103 -40.5t-32.5 49.5t63 81.5t88 86t48 137t-29.5 136t-117.5 71t-193.5 3.5t-285.5 -121t-237 -180t-114.5 -134t-70.5 -31.5t-3.5 113t75.5 123.5t140 101.5t179 122t218.5 105.5t224.5 53.5q100 -3 181 -39
t130.5 -100.5t49.5 -150.5zM1506 282q37 -47 -29 -111.5t-147 -99.5t-177 -70t-191.5 -55t-197.5 -29q-117 2 -166 17t-126 41t-134 67t-134 132q3 89 34 112.5t85.5 56.5t120.5 81t92.5 106.5t-8.5 76t-29 53t-15.5 50.5t-28.5 55t21.5 68t72.5 37.5t73 -15t60.5 29
t88.5 151.5t100.5 181t85 64t23 -110t-63.5 -150.5t-88.5 -129t-13.5 -96.5t25.5 -71t39.5 -47.5t85.5 2.5t84.5 20t81.5 34.5t74.5 20.5t39 -26.5t-29.5 -59t-109.5 -80.5t-188.5 -51.5t-185.5 28.5q-44 -89 -74 -135t-79.5 -90.5t-87 -69.5t-36 -76t93 -76.5t170 -31.5
t201.5 -1.5t257.5 52.5t179.5 69t150 76zM968 1880.19l-4 18.2002q0 15.5996 20 32.5q28 24.6992 32 59.7988t40 42.8994q104 -31.1992 278 -54.5986q-16 -49.3994 -87 -46.7998t-165 -116.999q-44 2.59961 -73 27.2998q-29 24.6992 -41 37.6992zM1458 2030.98
q120 -51.999 134 -127.398q-76 -10.4004 -90 -40.2998t-60 -45.5q-44 13 -63 28.6006q-19 15.5996 -22 63.6992t14 79.2988q17 31.2002 57 41.5996h30z" />
    <glyph glyph-name="Igrave" unicode="&#xcc;" horiz-adv-x="1449" 
d="M1588 890q100 112 147 206t39 188t-77 134t-171 39t-191 -56t-137 -143t-57 -181t83 -142t364 -45zM1496 768q-186 -4 -280 15t-150 75t-66 128t6 152t57 156t138 168t259 128l92 4q112 -8 187 -44t128 -97t69 -191q0 -72 -16 -119t-87 -166t-261 -316t-376 -346
t-333 -221t-249 -92l-98 -2q-86 2 -149 27t-107 97t-56 160v62q18 126 70 179t156 73q94 -28 100 -102q-18 -80 -88 -95t-70 -101t76 -120t193 -9t220 75t196 119t178 148t261 255zM1398 2113q5.2002 11 15.5996 19q10.4004 8 52 13q48.0996 -1 61.749 -24.5
q13.6504 -23.5 58.5 -48t100.099 -69q55.25 -44.5 118.949 -67t101.398 -27.5q37.7002 -5 57.8496 -20.5q20.1504 -15.5 25.3496 -42.5q-3.89941 -24 -14.2998 -28.5q-10.3994 -4.5 -50.6992 -10.5q-40.2998 0 -68.8994 11.5t-46.7998 23.5q-18.1992 12 -55.8994 23
q-37.6992 11 -82.5488 38t-100.749 76.5t-90.3496 64.5q-34.4492 15 -45.499 33t-23.4004 24.5q-12.3496 6.5 -12.3496 11.5z" />
    <glyph glyph-name="Iacute" unicode="&#xcd;" horiz-adv-x="1449" 
d="M1588 890q100 112 147 206t39 188t-77 134t-171 39t-191 -56t-137 -143t-57 -181t83 -142t364 -45zM1496 768q-186 -4 -280 15t-150 75t-66 128t6 152t57 156t138 168t259 128l92 4q112 -8 187 -44t128 -97t69 -191q0 -72 -16 -119t-87 -166t-261 -316t-376 -346
t-333 -221t-249 -92l-98 -2q-86 2 -149 27t-107 97t-56 160v62q18 126 70 179t156 73q94 -28 100 -102q-18 -80 -88 -95t-70 -101t76 -120t193 -9t220 75t196 119t178 148t261 255zM1405 1823q4 27 19.5 42.5t44.5 20.5t78 27.5t91 67t76.5 69t45 48t47.5 24.5
q33 -5 40.5 -13t12.5 -19q-1 -5 -10.5 -11.5t-17.5 -24.5t-35 -33t-70 -64.5t-77 -76.5t-63 -38t-43.5 -23t-36.5 -23.5t-52 -11.5q-31 6 -39 10.5t-11 28.5z" />
    <glyph glyph-name="Icircumflex" unicode="&#xce;" horiz-adv-x="1449" 
d="M1588 890q100 112 147 206t39 188t-77 134t-171 39t-191 -56t-137 -143t-57 -181t83 -142t364 -45zM1496 768q-186 -4 -280 15t-150 75t-66 128t6 152t57 156t138 168t259 128l92 4q112 -8 187 -44t128 -97t69 -191q0 -72 -16 -119t-87 -166t-261 -316t-376 -346
t-333 -221t-249 -92l-98 -2q-86 2 -149 27t-107 97t-56 160v62q18 126 70 179t156 73q94 -28 100 -102q-18 -80 -88 -95t-70 -101t76 -120t193 -9t220 75t196 119t178 148t261 255zM2031 1831q51 -69 51 -116q0 -14 -5 -26q-78 46 -136 107t-80 163q-108 -28 -185 -82
t-125 -107t-95 -51.5t-64 24.5t-17 56q0 81 71 77q81 -5 186 61t153 133t124 75q48 -28 52 -126t70 -188z" />
    <glyph glyph-name="Idieresis" unicode="&#xcf;" horiz-adv-x="1449" 
d="M1588 890q100 112 147 206t39 188t-77 134t-171 39t-191 -56t-137 -143t-57 -181t83 -142t364 -45zM1496 768q-186 -4 -280 15t-150 75t-66 128t6 152t57 156t138 168t259 128l92 4q112 -8 187 -44t128 -97t69 -191q0 -72 -16 -119t-87 -166t-261 -316t-376 -346
t-333 -221t-249 -92l-98 -2q-86 2 -149 27t-107 97t-56 160v62q18 126 70 179t156 73q94 -28 100 -102q-18 -80 -88 -95t-70 -101t76 -120t193 -9t220 75t196 119t178 148t261 255zM1432 1911l-4 14q0 12 20 25q28 19 32 46t40 33q104 -24 278 -42q-16 -38 -87 -36t-165 -90
q-44 2 -73 21t-41 29zM1922 2027q120 -40 134 -98q-76 -8 -90 -31t-60 -35q-44 10 -63 22t-22 49t14 61t57 32h30z" />
    <glyph glyph-name="Eth" unicode="&#xd0;" horiz-adv-x="1944" 
d="M1196 855q288 291 453 572q-132 139 -223 113t-123.5 -105t-99 -94t-99.5 50t11 158.5t149 127t205 0t232 -142.5q71 73 101 134t78 73q94 -42 82.5 -143t-111.5 -204q137 -144 145 -463q-12 -407 -175.5 -626.5t-350.5 -334.5t-293 -127q-80 2 -168.5 19.5t-187.5 87.5
t-138 135t-96 18t-125 -69t-132 -17.5t-116 62.5l-8 31q10 57 62.5 117.5t130.5 96t175 22t192.5 60.5t321.5 313q-138 43 -276 32.5t-117 51t175.5 72t325.5 -19.5zM1339 773q117 -87 163 -157t17.5 -97.5t-49 -17.5t-101 69t-152.5 80q-170 -181 -223 -227t-126 -114.5
t-46 -126t111.5 -112t201 -54.5t259 95.5t256 235.5t164.5 303.5t33.5 366t-83.5 264.5q-155 -204 -235.5 -295t-189.5 -213z" />
    <glyph glyph-name="Eth" unicode="&#x110;" horiz-adv-x="1944" 
d="M1196 855q288 291 453 572q-132 139 -223 113t-123.5 -105t-99 -94t-99.5 50t11 158.5t149 127t205 0t232 -142.5q71 73 101 134t78 73q94 -42 82.5 -143t-111.5 -204q137 -144 145 -463q-12 -407 -175.5 -626.5t-350.5 -334.5t-293 -127q-80 2 -168.5 19.5t-187.5 87.5
t-138 135t-96 18t-125 -69t-132 -17.5t-116 62.5l-8 31q10 57 62.5 117.5t130.5 96t175 22t192.5 60.5t321.5 313q-138 43 -276 32.5t-117 51t175.5 72t325.5 -19.5zM1339 773q117 -87 163 -157t17.5 -97.5t-49 -17.5t-101 69t-152.5 80q-170 -181 -223 -227t-126 -114.5
t-46 -126t111.5 -112t201 -54.5t259 95.5t256 235.5t164.5 303.5t33.5 366t-83.5 264.5q-155 -204 -235.5 -295t-189.5 -213z" />
    <glyph glyph-name="Ntilde" unicode="&#xd1;" horiz-adv-x="2375" 
d="M192 378q4 60 23 88t80 69t133 33t20 -81t-50 -144t76 -102t161 11t203 125t234 210t201 253t133 235t62 215t-67 200t-82 158t73 124q136 0 189 -80t96 -164t74 -171t65 -158t50 -146t51 -160t60 -179t81 -9t177 214t210 218t199 177t224 158t254 126t250 54t206 -35
t158 -76t100 -107t42 -224q-30 -68 -73 -62t-49 94t-65 145t-118 83t-155 42t-189 -15t-201 -98t-252 -165t-279 -235t-222 -255t-154 -227t-98 -232t-78 -235t-119 -172q-108 16 -113 65t29 111t58 157t28 197t-30 209t-65 180t-68 121t-79 -3t-121 -153t-196 -217
t-306 -260t-342 -194t-249 -20t-131 97t-49 210zM2198 2071.82q92.4014 31.2002 110.401 -30q18 -61.2012 82.2002 -121.802q64.2012 -60.6006 153.602 55.8008q89.4014 116.401 216.603 128.401q64.8008 -1.2002 121.201 -52.2002q56.4004 -51.001 85.8008 -117.602
t36.6006 -112.201q-64.8008 -26.4004 -94.8008 15.6006q-30 42 -69.6006 87.6006t-93.6016 28.2002q-54 -17.4004 -127.801 -110.401t-161.401 -94.2012q-85.2012 0 -135.002 49.2012q-49.8008 49.2002 -84.001 132.602q-34.2002 83.4004 -40.2002 141.001z" />
    <glyph glyph-name="Ograve" unicode="&#xd2;" horiz-adv-x="1072" 
d="M785 910q-203 -236 -270.5 -376t-82.5 -229t36.5 -96.5t148 53.5t235.5 211t319 348t207 402.5t-59.5 170.5t-210 -149.5t-323.5 -334.5zM205 254q23 138 121 301.5t251 337.5t316.5 332.5t263.5 247t191.5 126t158.5 43.5q123 -32 161 -194q0 -116 -22.5 -222
t-100.5 -211t-164 -214t-188.5 -210t-216 -204t-205 -180t-187.5 -143.5t-240 -90.5q-101 13 -120 71.5t-19 209.5zM1091 2129.57q4 12.0996 12 20.8994t40 14.2998q37 -1.10059 47.5 -26.9492q10.5 -25.8496 45 -52.7988q34.5 -26.9502 77 -75.8984
q42.5 -48.9492 91.5 -73.6982q49 -24.75 78 -30.25t44.5 -22.5488q15.5 -17.0498 19.5 -46.749q-3 -26.3994 -11 -31.3496t-39 -11.5498q-31 0 -53 12.6494q-22 12.6504 -36 25.8496q-14 13.2002 -43 25.2998t-63.5 41.7988t-77.5 84.1484q-43 54.4482 -69.5 70.9482
t-35 36.2988q-8.5 19.7998 -18 26.9492q-9.5 7.15039 -9.5 12.6504z" />
    <glyph glyph-name="Oacute" unicode="&#xd3;" horiz-adv-x="1072" 
d="M780 910q-203 -236 -270.5 -376t-82.5 -229t36.5 -96.5t148 53.5t235.5 211t319 348t207 402.5t-59.5 170.5t-210 -149.5t-323.5 -334.5zM200 254q23 138 121 301.5t251 337.5t316.5 332.5t263.5 247t191.5 126t158.5 43.5q123 -32 161 -194q0 -116 -22.5 -222
t-100.5 -211t-164 -214t-188.5 -210t-216 -204t-205 -180t-187.5 -143.5t-240 -90.5q-101 13 -120 71.5t-19 209.5zM1225 1838q5.59961 27 27.3008 42.5q21.7002 15.5 62.3008 20.5t109.202 27.5q68.6006 22.5 127.402 67q58.8008 44.5 107.102 69t63.001 48t66.501 24.5
q46.2012 -5 56.7012 -13t17.5 -19q-1.39941 -5 -14.7002 -11.5q-13.2998 -6.5 -24.5 -24.5t-49.001 -33t-98.002 -64.5t-107.802 -76.5t-88.2012 -38t-60.9014 -23q-20.2998 -12 -51.1006 -23.5t-72.8018 -11.5q-43.4004 6 -54.6006 10.5t-15.4004 28.5z" />
    <glyph glyph-name="Ocircumflex" unicode="&#xd4;" horiz-adv-x="1072" 
d="M780 910q-203 -236 -270.5 -376t-82.5 -229t36.5 -96.5t148 53.5t235.5 211t319 348t207 402.5t-59.5 170.5t-210 -149.5t-323.5 -334.5zM200 254q23 138 121 301.5t251 337.5t316.5 332.5t263.5 247t191.5 126t158.5 43.5q123 -32 161 -194q0 -116 -22.5 -222
t-100.5 -211t-164 -214t-188.5 -210t-216 -204t-205 -180t-187.5 -143.5t-240 -90.5q-101 13 -120 71.5t-19 209.5zM1778 1828q51 -69 51 -116q0 -14 -5 -26q-78 46 -136 107t-80 163q-108 -28 -185 -82t-125 -107t-95 -51.5t-64 24.5t-17 56q0 81 71 77q81 -5 186 61
t153 133t124 75q48 -28 52 -126t70 -188z" />
    <glyph glyph-name="Otilde" unicode="&#xd5;" horiz-adv-x="1072" 
d="M780 910q-203 -236 -270.5 -376t-82.5 -229t36.5 -96.5t148 53.5t235.5 211t319 348t207 402.5t-59.5 170.5t-210 -149.5t-323.5 -334.5zM200 254q23 138 121 301.5t251 337.5t316.5 332.5t263.5 247t191.5 126t158.5 43.5q123 -32 161 -194q0 -116 -22.5 -222
t-100.5 -211t-164 -214t-188.5 -210t-216 -204t-205 -180t-187.5 -143.5t-240 -90.5q-101 13 -120 71.5t-19 209.5zM1107 2051q77 26 92 -25t68.5 -101.5t128 46.5t180.5 107q54 -1 101 -43.5t71.5 -98t30.5 -93.5q-54 -22 -79 13t-58 73t-78 23.5t-106.5 -92t-134.5 -78.5
q-71 0 -112.5 41t-70 110.5t-33.5 117.5z" />
    <glyph glyph-name="Odieresis" unicode="&#xd6;" horiz-adv-x="1010" 
d="M950 1068q-206 -182 -310 -294t-173 -244t-84 -216t38 -91t152 51t241 199t327 328t212 381t-82 126t-321 -240zM292 0q-104 12 -123 68t-19 198q24 130 125 285t257 320t324 314t270 233t183 116t195 38q122 -60 146 -178q0 -110 -113 -327t-65 -5q-86 -258 -250 -415
t-280 -255t-211 -171t-193 -135t-246 -86zM1760 1985l82 10l70 -42q-28 -80 -23 -111t-71 -77l-60 -4q-122 112 -217 111t-115 43q230 24 334 70zM1158 1892q28 82 104 108l38 2q46 -10 67 -43t18 -82t-26 -65t-79 -30q-54 16 -70 48t-52 62z" />
    <glyph glyph-name="multiply" unicode="&#xd7;" horiz-adv-x="1246" 
d="M524 347q-200 213 -226 253l44 87q58 -5 213 -187l52 -53q124 153 220 235l81 -59q-5 -54 -184 -281q123 -130 165 -198.5t72 -121.5l-122 -11q-48 13 -200 233q-58 -61 -100.5 -98t-132.5 -165q-95 19 -97 65.5t85.5 138.5t129.5 162z" />
    <glyph glyph-name="Oslash" unicode="&#xd8;" horiz-adv-x="1117" 
d="M401 345q305 310 503.5 525t496.5 537q-5 56 -64.5 48t-90.5 -26.5t-80 20.5t68.5 115.5t219.5 83.5q63 4 135 -55q241 295 267 295q41 0 41 -60q0 -39 -48.5 -110t-193.5 -246q24 -96 -6.5 -224t-144 -296.5t-273.5 -350t-392 -362.5t-360.5 -224t-180 -27.5t-80.5 61.5
q-78 -66 -165.5 -148.5t-124.5 -100.5l-25 40q2 46 117.5 164t149.5 142q-16 130 116.5 351.5t284.5 418.5t331.5 348.5t208.5 162t72 -6.5q36 -20 -44 -82t-296 -314.5t-309.5 -409t-132.5 -269.5zM1434 1256q-376 -379 -525.5 -537t-484.5 -489q13 -39 59.5 -34t166 86
t281.5 231.5t333.5 400t169.5 342.5z" />
    <glyph glyph-name="Ugrave" unicode="&#xd9;" horiz-adv-x="1799" 
d="M612 483q117 107 207.5 189t168 174t161.5 203t190 210t-64 -33t-272 -224t-185 -193.5t-206 -325.5zM1125 214q-134 -110 -253.5 -198.5t-272.5 -91.5q-125 11 -189 89t-69 175q-191 -99 -205 29q162 73 237 142q109 264 270.5 463.5t358.5 353.5t324 246t152 152
t107 64q92 -38 103 -98t-24 -104t-98 -110t-123 -127t-187.5 -212t-233 -264t-200.5 -196t-260 -210q-25 -131 18 -190t119 -55.5t167 78t196 166.5t241 228t252 233t228 226t158 159t136 -54v-64q-54 -88 -157 -167t-222 -174t-226 -206t-140 -205t18 -123t175 -16t200 45
t182 84q56 -20 37 -55t-129 -105t-204 -99t-224 -43q-81 5 -143 30t-94.5 86.5t-24.5 117.5zM1767 2096q4 11 12 19t40 13q37 -1 47.5 -24.5t45 -48t77 -69t91.5 -67t78 -27.5t44.5 -20.5t19.5 -42.5q-3 -24 -11 -28.5t-39 -10.5q-31 0 -53 11.5t-36 23.5t-43 23t-63.5 38
t-77.5 76.5t-69.5 64.5t-35 33t-18 24.5t-9.5 11.5z" />
    <glyph glyph-name="Uacute" unicode="&#xda;" horiz-adv-x="2758" 
d="M2726 844q94 80 103 116t-47 12t-124 -83t-110 -117t19 -34t159 106zM2820 250q32 -112 -121 -150t-250 -54t-183 -31t-170 -21t-156 8t-77 80t-70 30t-197 -85t-249 -73t-214 -21t-139 41t-10 148t171 285t253 309t219 253t146 190t-5 59t-207 -139t-470 -451t-438 -465
t-168 -206t-10 -117t-10.5 -76.5t-92.5 -24.5q-82 0 -119.5 51.5t-37.5 101.5q0 82 98.5 186t307.5 311t429 419t490 427t375 263t200 155t151 124q25 8 48 8q28 0 52 -12q44 -21 31 -104t-195 -305t-377 -414t-312 -331t-193 -227t-112 -161t-4 -105t90 -24t143 25t175 46
t180 73t222 209t303 336t314 278t248 180t151 95t90 25t29 -58t10 -91q9 -11 9 -28q0 -31 -30 -84q-46 -82 -149 -177t-295 -222t-354 -246t-156 -194t78 -87t192 5t188 41t178 22zM2745 1740.69q4 35.0996 19.5 55.249q15.5 20.1504 44.5 26.6504t78 35.749
q49 29.25 91 87.0996t76.5 89.6992t45 62.3994t47.5 31.8496q33 -6.5 40.5 -16.9004q7.5 -10.3994 12.5 -24.6992q-1 -6.5 -10.5 -14.9502q-9.5 -8.44922 -17.5 -31.8496q-8 -23.3994 -35 -42.8994t-70 -83.8496q-43 -64.3486 -77 -99.4482q-34 -35.1006 -63 -49.4004
t-43.5 -29.8994t-36.5 -30.5498q-22 -14.9492 -52 -14.9492q-31 7.7998 -39 13.6494t-11 37.0498z" />
    <glyph glyph-name="Ucircumflex" unicode="&#xdb;" horiz-adv-x="1771" 
d="M584 483q117 107 207.5 189t168 174t161.5 203t190 210t-64 -33t-272 -224t-185 -193.5t-206 -325.5zM1097 214q-134 -110 -253.5 -198.5t-272.5 -91.5q-125 11 -189 89t-69 175q-191 -99 -205 29q162 73 237 142q109 264 270.5 463.5t358.5 353.5t324 246t152 152
t107 64q92 -38 103 -98t-24 -104t-98 -110t-123 -127t-187.5 -212t-233 -264t-200.5 -196t-260 -210q-25 -131 18 -190t119 -55.5t167 78t196 166.5t241 228t252 233t228 226t158 159t136 -54v-64q-54 -88 -157 -167t-222 -174t-226 -206t-140 -205t18 -123t175 -16t200 45
t182 84q56 -20 37 -55t-129 -105t-204 -99t-224 -43q-81 5 -143 30t-94.5 86.5t-24.5 117.5zM2506 1812q51 -69 51 -116q0 -14 -5 -26q-78 46 -136 107t-80 163q-108 -28 -185 -82t-125 -107t-95 -51.5t-64 24.5t-17 56q0 81 71 77q81 -5 186 61t153 133t124 75
q48 -28 52 -126t70 -188z" />
    <glyph glyph-name="Udieresis" unicode="&#xdc;" horiz-adv-x="1819" 
d="M632 483q117 107 207.5 189t168 174t161.5 203t190 210t-64 -33t-272 -224t-185 -193.5t-206 -325.5zM1145 214q-134 -110 -253.5 -198.5t-272.5 -91.5q-125 11 -189 89t-69 175q-191 -99 -205 29q162 73 237 142q109 264 270.5 463.5t358.5 353.5t324 246t152 152
t107 64q92 -38 103 -98t-24 -104t-98 -110t-123 -127t-187.5 -212t-233 -264t-200.5 -196t-260 -210q-25 -131 18 -190t119 -55.5t167 78t196 166.5t241 228t252 233t228 226t158 159t136 -54v-64q-54 -88 -157 -167t-222 -174t-226 -206t-140 -205t18 -123t175 -16t200 45
t182 84q56 -20 37 -55t-129 -105t-204 -99t-224 -43q-81 5 -143 30t-94.5 86.5t-24.5 117.5zM1815.4 1787.37l-4.40039 15.3994q0 13.1992 22 27.499q30.7988 20.8994 35.1992 50.5996q4.39941 29.6992 43.998 36.2988q114.398 -26.3994 305.794 -46.1992
q-17.5996 -41.7988 -95.6982 -39.5986q-78.0977 2.19922 -181.496 -98.998q-48.3984 2.2002 -80.2979 23.0996t-45.0986 31.8994zM2354.39 1914.97q131.997 -43.999 147.397 -107.797q-83.5986 -8.80078 -98.998 -34.0996q-15.4004 -25.2998 -65.999 -38.499
q-48.3984 10.999 -69.2979 24.1992q-20.9004 13.2002 -24.2002 53.8984q-3.2998 40.6992 15.4004 67.0986q18.6992 26.3994 62.6982 35.1992h32.999z" />
    <glyph glyph-name="Yacute" unicode="&#xdd;" horiz-adv-x="2492" 
d="M788 691.219q130 48.6016 374 166.505t526 255.606q282 137.704 449 223.206q167 85.5029 148 119.703q-19 34.2012 -94 23.4014q-75 -10.8008 -200 -27.001t-263 -45.9014t-330 -87.3027t-351 -125.104t-291 -140.403q-132 -72.9023 -171 -135.903
q-39 -63.002 14 -111.604t189 -115.203zM2520 243.007l42 -66.6025q-258 -142.203 -566 -324.008q-308 -181.806 -648 -418.512q-340 -236.707 -500 -300.608t-238 -65.7021q-170 75.6025 -100 199.806q70 124.204 313 350.109q243 225.906 434 354.61
q191 128.703 291 189.005t279 136.804t80 74.7021t-258 -34.2012t-442 -90.9023q-283 -58.502 -536 -85.5029q-253 -27 -326 18.001t-77 133.204q6 88.2021 84 139.503q78 51.3018 162 87.3027t24 62.1016t-113 70.2021t-86 104.402q-33 60.3018 -7 124.204
q26 63.9014 79 115.203q53 51.3008 248 162.004t393 184.505q198 73.8027 452 134.104q254 60.3018 523 90.0029q269 29.7002 387 29.7002q96 -14.4004 136 -31.5q40 -17.1006 68 -85.5029q0 -43.2012 -32 -79.2021q-76 -70.2012 -491 -267.307t-607 -290.708t-490 -219.606
q232 -3.59961 332 10.8008t206 43.2012t178 64.8018t73 86.4023t60 82.8018q59 32.4014 59 -27q0 -59.4023 86 -110.703q86 -51.3018 9 -97.2031t-377 -109.803q-300 -63.9023 -466 -81.002q-166 -17.1006 -382 17.0996q-318 -154.804 -247 -198.005t247 -18.001
q176 25.2012 360 68.4023t449 108.003t420 90.0029q155 25.2002 221 -1.80078q66 -27 68 -91.8027q2 -64.8008 -41 -130.503t-349 -202.506t-446 -222.306t-378 -284.408q-238 -198.905 -305 -299.708t12 -70.2021q79 30.6016 236 114.304t502 320.408
q345 236.707 548 338.409q203 101.703 447 200.706zM1660 1827.88q6.7998 29.6992 33.1504 46.749q26.3496 17.0488 75.6504 22.5488t132.601 30.25q83.3008 24.749 154.701 73.6982q71.4004 48.9482 130.051 75.8984q58.6514 26.9492 76.501 52.7988
q17.8506 25.8486 80.751 26.9492q56.0996 -5.5 68.8506 -14.2998q12.75 -8.7998 21.25 -20.8994q-1.7002 -5.5 -17.8506 -12.6504q-16.1504 -7.14941 -29.75 -26.9492q-13.6006 -19.7988 -59.501 -36.2988q-45.8994 -16.5 -119 -70.9482
q-73.1006 -54.4492 -130.901 -84.1484t-107.101 -41.7988q-49.3008 -12.0996 -73.9502 -25.2998q-24.6504 -13.1992 -62.0508 -25.8496q-37.4004 -12.6494 -88.4004 -12.6494q-52.7012 6.59961 -66.3008 11.5498q-13.6006 4.9502 -18.7002 31.3496z" />
    <glyph glyph-name="germandbls" unicode="&#xdf;" horiz-adv-x="1686" 
d="M-558 -814q336 330 457 451t173 203t19 79t-141 -61t-335 -221t-488 -444t-280 -326t-6 -79t52 -28t114 58t435 368zM1327 938q95 114 141 164t-29.5 40t-268 -214t-300.5 -304t-110 -128t82 30t236.5 178t248.5 234zM708 322q-188 -96 -191 -129t59 -24t189 61t90.5 103
t-147.5 -11zM1411 352q-139 -60 -180 -71t-99 -16t-35 -55t89 -28t225 170zM-64 152l8 60q184 30 285 59t191 70t187 154t221.5 250.5t287 303t282.5 253.5t167 98t77 10q28 0 46.5 -26t27 -75t-53.5 -143t-177 -235t-216 -231t-198 -149t-84 -103t76 -49.5t148.5 7.5
t217 89.5t183.5 130t108 60t80 -23.5t24 -56q0 -18 -21 -53t-99 -114t-212 -201t-259 -176t-193 -45t-103 57t-102 33t-158 -42t-160 -30t-151 -73t-244 -275t-323 -362t-354 -330t-336 -267t-177.5 -107t-69.5 -13q-55 0 -100 23t-62.5 59t-17.5 71q0 56 55 149.5
t207 274.5t349.5 354.5t350 281t296.5 158.5t245 100t133 68t6 37t-95 -7t-158 -34t-135 9z" />
    <glyph glyph-name="agrave" unicode="&#xe0;" horiz-adv-x="1129" 
d="M375 182q163 78 223 121t70 80t-7 77t-80 34t-136 -44t-147 -100t-94 -111t19 -76t152 19zM568 130q-82 -22 -147 -58t-126 -54t-135 -18q-51 0 -105.5 47t-54.5 167q2 63 107 164.5t246 177.5t251 76q98 0 139 -29t54 -64t10 -79t38 -34t43 -39t-39 -102t-65 -74
t-14 -47t70 -33t128.5 8.5t120 51.5t69 32t29.5 -36q-1 -39 -62.5 -85.5t-136 -71t-150.5 -28.5q-112 0 -175 35t-95 93zM716 1112q4 11 12 19t40 13q37 -1 47.5 -24.5t45 -48t77 -69t91.5 -67t78 -27.5t44.5 -20.5t19.5 -42.5q-3 -24 -11 -28.5t-39 -10.5q-31 0 -53 11.5
t-36 23.5t-43 23t-63.5 38t-77.5 76.5t-69.5 64.5t-35 33t-18 24.5t-9.5 11.5z" />
    <glyph glyph-name="aacute" unicode="&#xe1;" horiz-adv-x="1129" 
d="M375 182q163 78 223 121t70 80t-7 77t-80 34t-136 -44t-147 -100t-94 -111t19 -76t152 19zM568 130q-82 -22 -147 -58t-126 -54t-135 -18q-51 0 -105.5 47t-54.5 167q2 63 107 164.5t246 177.5t251 76q98 0 139 -29t54 -64t10 -79t38 -34t43 -39t-39 -102t-65 -74
t-14 -47t70 -33t128.5 8.5t120 51.5t69 32t29.5 -36q-1 -39 -62.5 -85.5t-136 -71t-150.5 -28.5q-112 0 -175 35t-95 93zM808 832q4 27 19.5 42.5t44.5 20.5t78 27.5t91 67t76.5 69t45 48t47.5 24.5q33 -5 40.5 -13t12.5 -19q-1 -5 -10.5 -11.5t-17.5 -24.5t-35 -33
t-70 -64.5t-77 -76.5t-63 -38t-43.5 -23t-36.5 -23.5t-52 -11.5q-31 6 -39 10.5t-11 28.5z" />
    <glyph glyph-name="acircumflex" unicode="&#xe2;" horiz-adv-x="1380" 
d="M488 234q56 50 73 83t3 45t-48 16t-87 -17t-96 -50t-69 -83t26 -79t82 0t116 85zM720 212q-56 -40 -124 -82t-146 -58t-127 -46t-95 -35t-102 -11q-78 16 -102 73t-24 131q18 50 112 127t160 129t121 76t98 29t74 31t73 36q54 -8 83 -37t48 -68t19 -82t31 -31t74 55
t86 53t93 -4t53 -55t-38 -69t-68 -55t-31 -68t25 -79t113 -28.5t130 46.5t104.5 61.5t87 15t38.5 -53.5q-50 -58 -147.5 -127.5t-169 -76.5t-143.5 -2t-121 33t-91 66t-94 106zM1234 776q-112 118 -133 217q-105 -27 -180 -79.5t-121.5 -104t-88 -47.5t-80.5 51
q-12 104 66.5 99.5t180.5 59.5t148.5 129t120.5 72q47 -27 50.5 -122t68 -182.5t44.5 -137.5z" />
    <glyph glyph-name="atilde" unicode="&#xe3;" horiz-adv-x="1129" 
d="M375 182q163 78 223 121t70 80t-7 77t-80 34t-136 -44t-147 -100t-94 -111t19 -76t152 19zM568 130q-82 -22 -147 -58t-126 -54t-135 -18q-51 0 -105.5 47t-54.5 167q2 63 107 164.5t246 177.5t251 76q98 0 139 -29t54 -64t10 -79t38 -34t43 -39t-39 -102t-65 -74
t-14 -47t70 -33t128.5 8.5t120 51.5t69 32t29.5 -36q-1 -39 -62.5 -85.5t-136 -71t-150.5 -28.5q-112 0 -175 35t-95 93zM646 1071.13q69.3018 23.4004 82.8027 -22.5q13.5 -45.9014 61.6514 -91.3525q48.1514 -45.4521 115.203 41.8506t162.454 96.3027
q48.6016 -0.900391 90.9023 -39.1514q42.3018 -38.251 64.3516 -88.2021q22.0508 -49.9512 27.4512 -84.1523q-48.6016 -19.8008 -71.1016 11.7002q-22.501 31.501 -52.2021 65.7021q-29.7002 34.2012 -70.2012 21.1504t-95.8525 -82.8018
q-55.3516 -69.752 -121.054 -70.6523q-63.9014 0 -101.253 36.9014q-37.3506 36.9004 -63.002 99.4521q-25.6504 62.5518 -30.1504 105.753z" />
    <glyph glyph-name="adieresis" unicode="&#xe4;" horiz-adv-x="1380" 
d="M690 813q-52 36 -64 50t14 31t36 69l32 6q96 -22 262 -40q-16 -34 -83 -33t-155 -85zM1082 929q112 -38 124 -92q-72 -6 -85 -28t-55 -34q-42 8 -59 19t-21 47t13 59t53 29h30zM488 234q56 50 73 83t3 45t-48 16t-87 -17t-96 -50t-69 -83t26 -79t82 0t116 85zM720 212
q-56 -40 -124 -82t-146 -58t-127 -46t-95 -35t-102 -11q-78 16 -102 73t-24 131q18 50 112 127t160 129t121 76t98 29t74 31t73 36q54 -8 83 -37t48 -68t19 -82t31 -31t74 55t86 53t93 -4t53 -55t-38 -69t-68 -55t-31 -68t25 -79t113 -28.5t130 46.5t104.5 61.5t87 15
t38.5 -53.5q-50 -58 -147.5 -127.5t-169 -76.5t-143.5 -2t-121 33t-91 66t-94 106z" />
    <glyph glyph-name="aring" unicode="&#xe5;" horiz-adv-x="1129" 
d="M375 182q163 78 223 121t70 80t-7 77t-80 34t-136 -44t-147 -100t-94 -111t19 -76t152 19zM568 130q-82 -22 -147 -58t-126 -54t-135 -18q-51 0 -105.5 47t-54.5 167q2 63 107 164.5t246 177.5t251 76q98 0 139 -29t54 -64t10 -79t38 -34t43 -39t-39 -102t-65 -74
t-14 -47t70 -33t128.5 8.5t120 51.5t69 32t29.5 -36q-1 -39 -62.5 -85.5t-136 -71t-150.5 -28.5q-112 0 -175 35t-95 93zM1013.31 1079.13q-59.4023 0 -100.354 -56.252q-40.9512 -56.251 -34.2002 -93.6025q6.75 -37.3506 45.001 -51.3018q38.251 -13.9502 84.1523 -4.5
t51.3008 33.3008q5.40039 23.8506 32.4014 51.752q27.001 27.9004 3.60059 74.252q-23.4014 46.3516 -81.9023 46.3516zM1181.61 1018.83q-6.30078 -91.8027 -41.4014 -131.404q-35.1016 -39.6006 -81.9023 -54.001q-46.8018 -14.4004 -99.9033 -14.4004
q-52.2012 0.900391 -93.1523 20.251q-40.9512 19.3496 -60.3018 51.751t-22.9502 101.703q2.7002 71.1016 46.8008 125.553q44.1016 54.4521 138.604 59.8516q102.603 -0.899414 157.054 -53.5508q54.4521 -52.6514 57.1523 -105.753z" />
    <glyph glyph-name="ae" unicode="&#xe6;" horiz-adv-x="1338" 
d="M172.5 162q37.5 -41 76.5 -21t68.5 22t82 47t95.5 100.5t38.5 100t-58.5 46.5t-135.5 -47t-143 -128t-24 -120zM896 -24q-112 0 -176.5 9.5t-99.5 33t-58 59t-45.5 45t-62 -23.5t-117 -52.5t-132 -36t-103.5 -7.5t-89 58t-42 111q0 54 32 106t104 130t124.5 123t111 72
t123.5 27q101 -8 104 -81t48.5 -56.5t85.5 -14.5t-3.5 -75.5t-68.5 -110t40 -98.5q49 139 137.5 238t160 145.5t112.5 61.5t75 15q28 -2 47 -14t28 -31t12.5 -32.5t-1 -41t-39.5 -69.5t-99.5 -70t-132 -62.5t-100 -66t-49.5 -69.5t-1 -59.5t51 -31.5t103 -3t138 26t137 45
t97 43t56 -29q-8 -44 -37 -60t-84.5 -43.5t-155.5 -64t-231 -45.5z" />
    <glyph glyph-name="ccedilla" unicode="&#xe7;" horiz-adv-x="708" 
d="M756 202q-8 -44 -37 -60t-80 -40t-108 -42t-127 -35t-111 -22t-83 -5q-38 0 -82.5 10t-87 48t-42.5 114q4 56 34 116t78 116t108 96t107 59t62 34t56 30t75 15q28 -2 47 -14t28 -31t-4 -40t-38 -42t-29 -52t-38 -36t-74 9t-69 10t-67 -47t-67 -82t-42 -78t6 -71t54 -42
t103 -3t138 28t137 45t97 41t56 -29zM364.91 -223.706q0 -36.001 -24.3008 -73.3516q-24.2998 -37.3516 -72.002 -59.8516q-47.7012 -22.501 -122.402 -22.501q-56.7021 0 -112.953 24.751q-56.252 24.75 -56.252 55.3516q5.40039 17.1006 18.9004 20.7002t58.0518 -10.8008
q44.5508 -14.4004 115.653 -0.449219q71.1016 13.9502 67.9512 76.9521q-3.14941 63.001 -58.0508 64.3516q-54.9023 1.34961 -58.0518 34.2012q-3.15039 32.8506 20.7002 58.501t40.9512 51.752l69.3018 -0.900391q-60.3018 -81.9023 -3.14941 -91.3525
q57.1514 -9.4502 86.4023 -49.9512q29.25 -40.501 29.25 -77.4023z" />
    <glyph glyph-name="egrave" unicode="&#xe8;" horiz-adv-x="770" 
d="M160 301q85 53 147.5 102.5t47 75t-60 -0.5t-83 -76t-51.5 -101zM856 200q-26 -63 -101 -103.5t-178 -71.5t-231 -31q-136 0 -197.5 21.5t-110 66t-48.5 132.5q0 84 26 140t84.5 123t129 113t156.5 46q62 0 108 -33t39 -114t-97 -145t-167.5 -102t-67 -57.5t56.5 -35
t151 -16.5t187 20t133 45t80 32t47 -30zM443 1045.43q3.59961 9.90039 10.8008 17.1006q7.19922 7.2002 36 11.7002q33.3018 -0.899414 42.752 -22.0508q9.4502 -21.1504 40.501 -43.2012q31.0508 -22.0498 69.3018 -62.1016q38.251 -40.0508 82.3525 -60.3018
q44.1006 -20.25 70.2012 -24.75t40.0518 -18.4512q13.9502 -13.9502 17.5498 -38.251q-2.7002 -21.6006 -9.89941 -25.6504q-7.20117 -4.0498 -35.1016 -9.4502q-27.9004 0 -47.7012 10.3506q-19.8008 10.3496 -32.4004 21.1504q-12.6006 10.7998 -38.7012 20.7002
q-26.1016 9.90039 -57.1523 34.2012t-69.752 68.8516q-38.7002 44.5518 -62.5508 58.0518q-23.8516 13.5 -31.501 29.7012q-7.65039 16.2002 -16.2012 22.0508q-8.5498 5.84961 -8.5498 10.3496z" />
    <glyph glyph-name="eacute" unicode="&#xe9;" horiz-adv-x="770" 
d="M160 301q85 53 147.5 102.5t47 75t-60 -0.5t-83 -76t-51.5 -101zM856 200q-26 -63 -101 -103.5t-178 -71.5t-231 -31q-136 0 -197.5 21.5t-110 66t-48.5 132.5q0 84 26 140t84.5 123t129 113t156.5 46q62 0 108 -33t39 -114t-97 -145t-167.5 -102t-67 -57.5t56.5 -35
t151 -16.5t187 20t133 45t80 32t47 -30zM613 872q4 27 19.5 42.5t44.5 20.5t78 27.5t91 67t76.5 69t45 48t47.5 24.5q33 -5 40.5 -13t12.5 -19q-1 -5 -10.5 -11.5t-17.5 -24.5t-35 -33t-70 -64.5t-77 -76.5t-63 -38t-43.5 -23t-36.5 -23.5t-52 -11.5q-31 6 -39 10.5
t-11 28.5z" />
    <glyph glyph-name="ecircumflex" unicode="&#xea;" horiz-adv-x="770" 
d="M160 301q85 53 147.5 102.5t47 75t-60 -0.5t-83 -76t-51.5 -101zM856 200q-26 -63 -101 -103.5t-178 -71.5t-231 -31q-136 0 -197.5 21.5t-110 66t-48.5 132.5q0 84 26 140t84.5 123t129 113t156.5 46q62 0 108 -33t39 -114t-97 -145t-167.5 -102t-67 -57.5t56.5 -35
t151 -16.5t187 20t133 45t80 32t47 -30zM971.792 863.828q40.7998 -62.1016 40.7998 -104.403q0 -12.6006 -4 -23.4004q-62.3994 41.4014 -108.799 96.3027t-63.999 146.704q-86.3984 -25.2012 -147.998 -73.8027q-61.5986 -48.6006 -99.998 -96.3018
q-38.3994 -47.7021 -75.999 -46.3516q-37.5996 1.34961 -51.1992 22.0508q-13.5996 20.7002 -13.5996 50.4014q0 72.9014 56.7988 69.3018q64.7988 -4.5 148.798 54.9014t122.398 119.703t99.1982 67.502q38.3994 -25.2012 41.5996 -113.403t55.999 -169.204z" />
    <glyph glyph-name="edieresis" unicode="&#xeb;" horiz-adv-x="770" 
d="M160 301q85 53 147.5 102.5t47 75t-60 -0.5t-83 -76t-51.5 -101zM856 200q-26 -63 -101 -103.5t-178 -71.5t-231 -31q-136 0 -197.5 21.5t-110 66t-48.5 132.5q0 84 26 140t84.5 123t129 113t156.5 46q62 0 108 -33t39 -114t-97 -145t-167.5 -102t-67 -57.5t56.5 -35
t151 -16.5t187 20t133 45t80 32t47 -30zM415 886l-4 14q0 12 20 25q28 19 32 46t40 33q104 -24 278 -42q-16 -38 -87 -36t-165 -90q-44 2 -73 21t-41 29zM905 1002q120 -40 134 -98q-76 -8 -90 -31t-60 -35q-44 10 -63 22t-22 49t14 61t57 32h30z" />
    <glyph glyph-name="igrave" unicode="&#xec;" horiz-adv-x="981" 
d="M554 641q22 0 50.5 -9.5t27.5 -61.5t-60 -88t-88 -77t-47 -91t-1 -100t65 -65t150 -14t179 21t135 55t98 25l12 -48q-26 -42 -123 -91t-224 -78t-249 -29q-82 0 -138 33t-85 79t-31 92t11 91.5t-27.5 -2.5t-111.5 -89t-117 -63t-70 74q162 75 236 171.5t169.5 139
t153.5 89.5q44 36 85 36zM635 1234q4 11 12 19t40 13q37 -1 47.5 -24.5t45 -48t77 -69t91.5 -67t78 -27.5t44.5 -20.5t19.5 -42.5q-3 -24 -11 -28.5t-39 -10.5q-31 0 -53 11.5t-36 23.5t-43 23t-63.5 38t-77.5 76.5t-69.5 64.5t-35 33t-18 24.5t-9.5 11.5z" />
    <glyph glyph-name="iacute" unicode="&#xed;" horiz-adv-x="981" 
d="M554 641q22 0 50.5 -9.5t27.5 -61.5t-60 -88t-88 -77t-47 -91t-1 -100t65 -65t150 -14t179 21t135 55t98 25l12 -48q-26 -42 -123 -91t-224 -78t-249 -29q-82 0 -138 33t-85 79t-31 92t11 91.5t-27.5 -2.5t-111.5 -89t-117 -63t-70 74q162 75 236 171.5t169.5 139
t153.5 89.5q44 36 85 36zM813 958.812q4.7998 32.4004 23.4004 51.001q18.5996 18.5996 53.4004 24.5996t93.6006 33.001q58.8008 27 109.201 80.4004t91.8008 82.8008q41.4014 29.4004 54.001 57.6006q12.6006 28.2002 57.001 29.4004q39.5996 -6 48.6006 -15.5996
q9 -9.60059 15 -22.8008q-1.2002 -6 -12.6006 -13.7998q-11.4004 -7.80078 -21 -29.4004q-9.60059 -21.6006 -42.001 -39.6006q-32.3994 -18 -84 -77.4004q-51.6006 -59.4014 -92.4014 -91.8018q-40.8008 -32.3994 -75.6006 -45.5996q-34.8008 -13.2002 -52.2002 -27.6006
q-17.4004 -14.4004 -43.8008 -28.2002q-26.4004 -13.8008 -62.4004 -13.8008q-37.2012 7.2002 -46.8008 12.6006q-9.60059 5.40039 -13.2002 34.2002z" />
    <glyph glyph-name="icircumflex" unicode="&#xee;" horiz-adv-x="981" 
d="M554 641q22 0 50.5 -9.5t27.5 -61.5t-60 -88t-88 -77t-47 -91t-1 -100t65 -65t150 -14t179 21t135 55t98 25l12 -48q-26 -42 -123 -91t-224 -78t-249 -29q-82 0 -138 33t-85 79t-31 92t11 91.5t-27.5 -2.5t-111.5 -89t-117 -63t-70 74q162 75 236 171.5t169.5 139
t153.5 89.5q44 36 85 36zM1107.79 1000.83q40.7998 -62.1016 40.7998 -104.403q0 -12.6006 -4 -23.4004q-62.3994 41.4014 -108.799 96.3027t-63.999 146.704q-86.3984 -25.2012 -147.998 -73.8027q-61.5986 -48.6006 -99.998 -96.3018q-38.3994 -47.7021 -75.999 -46.3516
q-37.5996 1.34961 -51.1992 22.0508q-13.5996 20.7002 -13.5996 50.4014q0 72.9014 56.7988 69.3018q64.7988 -4.5 148.798 54.9014t122.398 119.703t99.1982 67.502q38.3994 -25.2012 41.5996 -113.403t55.999 -169.204z" />
    <glyph glyph-name="idieresis" unicode="&#xef;" horiz-adv-x="981" 
d="M554 641q22 0 50.5 -9.5t27.5 -61.5t-60 -88t-88 -77t-47 -91t-1 -100t65 -65t150 -14t179 21t135 55t98 25l12 -48q-26 -42 -123 -91t-224 -78t-249 -29q-82 0 -138 33t-85 79t-31 92t11 91.5t-27.5 -2.5t-111.5 -89t-117 -63t-70 74q162 75 236 171.5t169.5 139
t153.5 89.5q44 36 85 36zM501 916l-4 14q0 12 20 25q28 19 32 46t40 33q104 -24 278 -42q-16 -38 -87 -36t-165 -90q-44 2 -73 21t-41 29zM991 1032q120 -40 134 -98q-76 -8 -90 -31t-60 -35q-44 10 -63 22t-22 49t14 61t57 32h30z" />
    <glyph glyph-name="eth" unicode="&#xf0;" horiz-adv-x="753" 
d="M558 480q-78 14 -131 3.5t-113.5 -60.5t-86.5 -96t-21 -88t42 -63.5t79 -15.5t87.5 38.5t71.5 89t72 192.5zM-533 1211l-18 27q0 29 24.5 61.5t60 63t75 63.5t103 57.5t154.5 33.5q77 0 166.5 -15t192 -66t190.5 -127.5t160.5 -171t106 -215.5t36.5 -166t3 -128
q-9 -209 -47.5 -324.5t-123 -196.5t-155 -95t-129.5 -14q-92 4 -161 72.5t-83.5 155.5t9 153.5t105 142.5t167 83t152 6t100 21.5t34 75.5t-58 208t-187 280.5t-283 183t-264 25t-178.5 -70.5t-87.5 -90.5t-63.5 -32.5zM219 858l4 36q52 36 85.5 64.5t120.5 138.5
q33 -44 61 -96q-63 -88 -123.5 -125.5t-80 -56t-67.5 38.5zM778 1298q-3 -39 -58 -72.5t-123 -115.5q-35 50 -72 92q108 85 155 111t66 19t32 -34z" />
    <glyph glyph-name="ntilde" unicode="&#xf1;" horiz-adv-x="1339" 
d="M1498 244q-6 -78 -41 -111t-218 -92t-273 -34t-114 78t-6 113t-105 -28t-215 -138t-138 -70q-62 0 -97 21t-39 75t53 100t110 96t65 102t-61 33t-200 -107t-168 -110t-113 -28q10 100 50 118t122 89t193 128t174 86t137 33q66 -24 79 -79t-10 -118t-167 -213
q228 134 315 185t140 63t91 -33t0 -131t-25 -128t192 8t269 92zM733 1024.13q69.3018 23.4004 82.8027 -22.5q13.5 -45.9014 61.6514 -91.3525q48.1514 -45.4521 115.203 41.8506t162.454 96.3027q48.6016 -0.900391 90.9023 -39.1514q42.3018 -38.251 64.3516 -88.2021
q22.0508 -49.9512 27.4512 -84.1523q-48.6016 -19.8008 -71.1016 11.7002q-22.501 31.501 -52.2021 65.7021q-29.7002 34.2012 -70.2012 21.1504t-95.8525 -82.8018q-55.3516 -69.752 -121.054 -70.6523q-63.9014 0 -101.253 36.9014q-37.3506 36.9004 -63.002 99.4521
q-25.6504 62.5518 -30.1504 105.753z" />
    <glyph glyph-name="ograve" unicode="&#xf2;" horiz-adv-x="1002" 
d="M1088 224q-10 -60 -33 -72t-93 -22t-168 43t-140 21t-126 -83t-165 -81t-185 -30q-96 32 -136 99t-40 147q10 56 83 123t140 112t136 66t98 -6t38 -66t-8 -63t-50 -32t-91 -21t-125 -64t-35 -99t79 -50t89 26t99 53t111 62t54 93t-42 87t-35 79t44 66t123 20
q90 -18 110 -90t-3 -134t57 -112t143 -33t71 -39zM477 1152q4 11 12 19t40 13q37 -1 47.5 -24.5t45 -48t77 -69t91.5 -67t78 -27.5t44.5 -20.5t19.5 -42.5q-3 -24 -11 -28.5t-39 -10.5q-31 0 -53 11.5t-36 23.5t-43 23t-63.5 38t-77.5 76.5t-69.5 64.5t-35 33t-18 24.5
t-9.5 11.5z" />
    <glyph glyph-name="oacute" unicode="&#xf3;" horiz-adv-x="1002" 
d="M1088 224q-10 -60 -33 -72t-93 -22t-168 43t-140 21t-126 -83t-165 -81t-185 -30q-96 32 -136 99t-40 147q10 56 83 123t140 112t136 66t98 -6t38 -66t-8 -63t-50 -32t-91 -21t-125 -64t-35 -99t79 -50t89 26t99 53t111 62t54 93t-42 87t-35 79t44 66t123 20
q90 -18 110 -90t-3 -134t57 -112t143 -33t71 -39zM605 885q4 27 19.5 42.5t44.5 20.5t78 27.5t91 67t76.5 69t45 48t47.5 24.5q33 -5 40.5 -13t12.5 -19q-1 -5 -10.5 -11.5t-17.5 -24.5t-35 -33t-70 -64.5t-77 -76.5t-63 -38t-43.5 -23t-36.5 -23.5t-52 -11.5
q-31 6 -39 10.5t-11 28.5z" />
    <glyph glyph-name="ocircumflex" unicode="&#xf4;" horiz-adv-x="1001" 
d="M1088 224q-10 -60 -33 -72t-93 -22t-168 43t-140 21t-126 -83t-165 -81t-185 -30q-96 32 -136 99t-40 147q10 56 83 123t140 112t136 66t98 -6t38 -66t-8 -63t-50 -32t-91 -21t-125 -64t-35 -99t79 -50t89 26t99 53t111 62t54 93t-42 87t-35 79t44 66t123 20
q90 -18 110 -90t-3 -134t57 -112t143 -33t71 -39zM1106.42 941.828q45.9014 -62.1016 45.9014 -104.403q0 -12.6006 -4.5 -23.4004q-70.2021 41.4014 -122.403 96.3027t-72.002 146.704q-97.2031 -25.2012 -166.505 -73.8027q-69.3018 -48.6006 -112.503 -96.3018
q-43.2012 -47.7021 -85.502 -46.3516q-42.3018 1.34961 -57.6016 22.0508q-15.3008 20.7002 -15.3008 50.4014q0 72.9014 63.9014 69.3018q72.9023 -4.5 167.405 54.9014q94.502 59.4014 137.703 119.703t111.604 67.502q43.2012 -25.2012 46.8008 -113.403
q3.60059 -88.2021 63.002 -169.204z" />
    <glyph glyph-name="otilde" unicode="&#xf5;" horiz-adv-x="1001" 
d="M1088 224q-10 -60 -33 -72t-93 -22t-168 43t-140 21t-126 -83t-165 -81t-185 -30q-96 32 -136 99t-40 147q10 56 83 123t140 112t136 66t98 -6t38 -66t-8 -63t-50 -32t-91 -21t-125 -64t-35 -99t79 -50t89 26t99 53t111 62t54 93t-42 87t-35 79t44 66t123 20
q90 -18 110 -90t-3 -134t57 -112t143 -33t71 -39zM549 1107.13q69.3018 23.4004 82.8027 -22.5q13.5 -45.9014 61.6514 -91.3525q48.1514 -45.4521 115.203 41.8506t162.454 96.3027q48.6016 -0.900391 90.9023 -39.1514q42.3018 -38.251 64.3516 -88.2021
q22.0508 -49.9512 27.4512 -84.1523q-48.6016 -19.8008 -71.1016 11.7002q-22.501 31.501 -52.2021 65.7021q-29.7002 34.2012 -70.2012 21.1504t-95.8525 -82.8018q-55.3516 -69.752 -121.054 -70.6523q-63.9014 0 -101.253 36.9014q-37.3506 36.9004 -63.002 99.4521
q-25.6504 62.5518 -30.1504 105.753z" />
    <glyph glyph-name="odieresis" unicode="&#xf6;" horiz-adv-x="785" 
d="M174 -2q-42 0 -59 8t-64 10t-74 29t-31 131q8 72 73 123t115 89t126 100t141 81t89 -11t19 -81t-43 -78t-96 -56t-104 -58t-71 -62t-15 -56t93 -4.5t181.5 90t121.5 127.5t4.5 75t-31.5 59.5t-6 71t60 47t85.5 -24t66.5 -61t37 -56.5t3 -58q0 -20 -18 -71.5t-58 -97.5
t-129.5 -106t-221 -109.5t-194.5 -50.5zM684 1062q78 -80 139 -79t75 -29q-148 -18 -236 -38l-30 6q-8 46 -32 62t-13 29t57 45zM987 918q-34 6 -49 27t-12 53t19 42t54 20q38 -12 50 -32t78 -26q-12 -50 -116 -84h-24z" />
    <glyph glyph-name="divide" unicode="&#xf7;" horiz-adv-x="1500" 
d="M715 961q0 47 17.5 74.5t70.5 33.5q43 -1 74.5 -23t33.5 -63q-5 -49 -26.5 -76t-82.5 -31q-52 4 -68 22t-19 63zM673 236q0 47 18 74.5t71 33.5q43 -1 74.5 -23t32.5 -63q-4 -49 -25.5 -76t-82.5 -30q-52 3 -68 21t-20 63zM216 553q3 27 23.5 39.5t81.5 26t132 14t116 6
t84 21.5t97 13.5t142 3t134.5 10.5t73 16t67.5 19q52 0 70.5 -19t25.5 -28t10 -24q-3 -26 -25 -33.5t-49 -22.5t-56 -13t-232 -19t-254 -41.5t-112 -19t-84.5 -6.5t-53 -4t-55.5 12.5t-62 8.5t-52.5 9t-21.5 31z" />
    <glyph glyph-name="oslash" unicode="&#xf8;" horiz-adv-x="864" 
d="M30 176q8 72 57 152.5t98 135t108.5 94.5t122.5 54.5t106.5 5t38.5 -60.5t-43 -78t-80 -23.5t-107 -51t-122 -146.5t-5 -105t175 81t199.5 172t83.5 108.5t-41.5 35.5t-41.5 39t84 47t109.5 -27.5t66.5 -61t37 -56.5t3 -58q0 -20 -18 -71.5t-60.5 -110t-135 -125.5
t-225 -99.5t-172.5 -34t-97.5 7.5t-97 40.5t-43.5 135.5zM69 -220q-46 7 -63 33q4 49 115 195q46 -16 82 -19.5t115 1.5q-108 -100 -143 -139.5t-49 -52t-57 -18.5zM919 804l34 -3q28 -16 36 -53q0 -36 -15.5 -62.5t-111.5 -147.5q-34 22 -50.5 34.5t-53.5 55.5
q74 101 161 176z" />
    <glyph glyph-name="ugrave" unicode="&#xf9;" horiz-adv-x="1432" 
d="M774 246q-130 -72 -225 -114t-189 -81t-160 -45t-92 -6q-68 0 -112 18q-62 26 -64 86q-2 0 -2 2q0 58 120 174q150 142 232 221t123 109t73 38q36 -6 52 -14t39 -38t-10 -98t-105 -114t-123 -81t-91 -69t-36 -63t49 -29t117 26t183 85t202 98t145 68t80 75t60 62t55 -16
t10 -101t-50 -105t-79 -72t-46 -62t13 -63t156 -9t199 57t164 49l34 -40q-18 -44 -104 -87t-235 -79t-255 -36q-108 0 -152 25t-51 70t75 159zM816 1243.57q4.40039 12.0996 13.1992 20.8994q8.80078 8.7998 44 14.2998q40.6982 -1.10059 52.248 -26.9492
q11.5498 -25.8496 49.499 -52.7988q37.9492 -26.9502 84.6982 -75.8984q46.749 -48.9492 100.647 -73.6982q53.8994 -24.75 85.7988 -30.25t48.9482 -22.5488q17.0498 -17.0498 21.4502 -46.749q-3.2998 -26.3994 -12.1006 -31.3496q-8.79883 -4.9502 -42.8984 -11.5498
q-34.0996 0 -58.2988 12.6494q-24.1992 12.6504 -39.5996 25.8496q-15.3994 13.2002 -47.2988 25.2998q-31.8984 12.0996 -69.8477 41.7988t-85.248 84.1484q-47.2998 54.4482 -76.4492 70.9482q-29.1484 16.5 -38.499 36.2988q-9.34961 19.7998 -19.7988 26.9492
q-10.4502 7.15039 -10.4502 12.6504z" />
    <glyph glyph-name="uacute" unicode="&#xfa;" horiz-adv-x="1432" 
d="M774 246q-130 -72 -225 -114t-189 -81t-160 -45t-92 -6q-68 0 -112 18q-62 26 -64 86q-2 0 -2 2q0 58 120 174q150 142 232 221t123 109t73 38q36 -6 52 -14t39 -38t-10 -98t-105 -114t-123 -81t-91 -69t-36 -63t49 -29t117 26t183 85t202 98t145 68t80 75t60 62t55 -16
t10 -101t-50 -105t-79 -72t-46 -62t13 -63t156 -9t199 57t164 49l34 -40q-18 -44 -104 -87t-235 -79t-255 -36q-108 0 -152 25t-51 70t75 159zM895 886q4 27 19.5 42.5t44.5 20.5t78 27.5t91 67t76.5 69t45 48t47.5 24.5q33 -5 40.5 -13t12.5 -19q-1 -5 -10.5 -11.5
t-17.5 -24.5t-35 -33t-70 -64.5t-77 -76.5t-63 -38t-43.5 -23t-36.5 -23.5t-52 -11.5q-31 6 -39 10.5t-11 28.5z" />
    <glyph glyph-name="ucircumflex" unicode="&#xfb;" horiz-adv-x="1432" 
d="M774 246q-130 -72 -225 -114t-189 -81t-160 -45t-92 -6q-68 0 -112 18q-62 26 -64 86q-2 0 -2 2q0 58 120 174q150 142 232 221t123 109t73 38q36 -6 52 -14t39 -38t-10 -98t-105 -114t-123 -81t-91 -69t-36 -63t49 -29t117 26t183 85t202 98t145 68t80 75t60 62t55 -16
t10 -101t-50 -105t-79 -72t-46 -62t13 -63t156 -9t199 57t164 49l34 -40q-18 -44 -104 -87t-235 -79t-255 -36q-108 0 -152 25t-51 70t75 159zM1416.42 968.828q45.9014 -62.1016 45.9014 -104.403q0 -12.6006 -4.5 -23.4004q-70.2021 41.4014 -122.403 96.3027
t-72.002 146.704q-97.2031 -25.2012 -166.505 -73.8027q-69.3018 -48.6006 -112.503 -96.3018q-43.2012 -47.7021 -85.502 -46.3516q-42.3018 1.34961 -57.6016 22.0508q-15.3008 20.7002 -15.3008 50.4014q0 72.9014 63.9014 69.3018q72.9023 -4.5 167.405 54.9014
q94.502 59.4014 137.703 119.703t111.604 67.502q43.2012 -25.2012 46.8008 -113.403q3.60059 -88.2021 63.002 -169.204z" />
    <glyph glyph-name="udieresis" unicode="&#xfc;" horiz-adv-x="1208" 
d="M1270 170q-26 -50 -77 -76t-128 -28t-116 -21t-90 2t-91 37t-82 82q-86 -80 -126 -91t-89 -14t-88 -16t-67 -34t-82 -45q-116 14 -142 58t-33 91t-19 135q22 60 61 81t67 56t54 111t116 128q66 -38 55 -126t-46 -132t-75 -90t-32 -91t121 -34t191 75t128.5 74t140 100
t111.5 122t72 21t72 -46t22 -82t-50 -61t-83 -39t-46 -59t13 -61t108 -22t137 30t70 12t23 -47zM708 949q115 -26 307 -46q-18 -42 -96 -40t-182 -99l-49 2q-63 42 -76.5 58.5t17.5 37.5t40 81zM1156 833q-49 11 -70 24.5t-24 54t15.5 67t62.5 35.5h33q133 -44 148 -108
q-84 -9 -99.5 -34t-65.5 -39z" />
    <glyph glyph-name="yacute" unicode="&#xfd;" horiz-adv-x="1489" 
d="M1638 216q0 -12 -6 -30q-40 -34 -148 -102t-295 -198t-364 -269t-349 -236t-298 -179q-54 -22 -94 -22q-24 0 -42 8q-50 22 -2 128t129 192t174 156t191 124t186 114t112 104t-39 29t-169 -30t-184 -12t-136 43t-41 107t75 123t142 108t114 81t34 51t-75 -15t-173 -95
t-209 -162t-337 -140q40 98 88 116t100 59t157 113t222 142t215 104q56 18 96 18q32 0 54 -10q52 -26 69 -68t-22 -105t-122 -122t-150 -100t-67 -69t58 -50t178 -3t207 60t143 59t66 -36t-24 -131t-131 -143t-227 -152t-255 -158t-205 -173t-19 -67t158 91t221 142t396 292
t407 276t169 63q22 -4 22 -26zM1320 893q4.7998 27 23.4004 42.5q18.5996 15.5 53.4004 20.5t93.6006 27.5q58.8008 22.5 109.201 67t91.8008 69q41.4014 24.5 54.001 48q12.6006 23.5 57.001 24.5q39.5996 -5 48.6006 -13q9 -8 15 -19q-1.2002 -5 -12.6006 -11.5t-21 -24.5
q-9.60059 -18 -42.001 -33q-32.3994 -15 -84 -64.5t-92.4014 -76.5t-75.6006 -38q-34.8008 -11 -52.2002 -23q-17.4004 -12 -43.8008 -23.5t-62.4004 -11.5q-37.2012 6 -46.8008 10.5q-9.60059 4.5 -13.2002 28.5z" />
    <glyph glyph-name="ydieresis" unicode="&#xff;" horiz-adv-x="1490" 
d="M1638 216q0 -12 -6 -30q-40 -34 -148 -102t-295 -198t-364 -269t-349 -236t-298 -179q-54 -22 -94 -22q-24 0 -42 8q-50 22 -2 128t129 192t174 156t191 124t186 114t112 104t-39 29t-169 -30t-184 -12t-136 43t-41 107t75 123t142 108t114 81t34 51t-75 -15t-173 -95
t-209 -162t-337 -140q40 98 88 116t100 59t157 113t222 142t215 104q56 18 96 18q32 0 54 -10q52 -26 69 -68t-22 -105t-122 -122t-150 -100t-67 -69t58 -50t178 -3t207 60t143 59t66 -36t-24 -131t-131 -143t-227 -152t-255 -158t-205 -173t-19 -67t158 91t221 142t396 292
t407 276t169 63q22 -4 22 -26zM765.2 1001l-5.2002 14q0 12 26 25q36.3994 19 41.5996 46q5.19922 27 51.999 33q135.199 -24 361.396 -42q-20.7998 -38 -113.099 -36t-214.498 -90q-57.1992 2 -94.8994 21q-37.6992 19 -53.2988 29zM1402.19 1117q155.998 -40 174.198 -98
q-98.7988 -8 -116.999 -31t-77.999 -35q-57.2002 10 -81.8994 22q-24.7002 12 -28.5996 49q-3.90039 37 18.1992 61q22.1006 24 74.0996 32h39z" />
    <glyph glyph-name="Amacron" unicode="&#x100;" horiz-adv-x="1756" 
d="M1520 946q72 152 39 228t-82 92.5t-103 6t-218 -98.5t-264 -176t-185 -197t-207 -240.5t-159 -254t-27 -180.5t56 -55t148 38.5t288 152t347 258.5t367 426zM1862 176q-182 -116 -383 -154t-289 -24t-119 81t-19 147q-90 -54 -175 -77t-184 -69t-199 -101t-180 -59
q-88 4 -121 41t-33 176q0 103 71 231.5t157 246t197 252.5t212 235t212 172t230 127t153.5 60.5t62.5 5.5q41 -1 95 -21t115 -78t70 -131t-67 -227t-118 -213t-9 -61t30 -38t-68.5 -130t-139 -157t-85.5 -136t28 -110t119 -27t175 39t159 51t103 -52zM1730 1930
q98 25 140 25q11 0 32 -5.5t36 -10t19 -29.5q-1 -31 -16.5 -38t-37 -6t-32 -9t-43 -17.5t-128 -46t-123.5 -39t-92 -3.5t-82 -1t-82.5 -9t-136.5 -11q-36 2 -42 18t-33 8.5t-48.5 4t-25.5 61.5q0 14 16.5 34t42.5 24t97.5 -11t123 9.5t76 11.5t120 -10.5t219.5 50.5z" />
    <glyph glyph-name="amacron" unicode="&#x101;" horiz-adv-x="1128" 
d="M375 182q163 78 223 121t70 80t-7 77t-80 34t-136 -44t-147 -100t-94 -111t19 -76t152 19zM568 130q-82 -22 -147 -58t-126 -54t-135 -18q-51 0 -105.5 47t-54.5 167q2 63 107 164.5t246 177.5t251 76q98 0 139 -29t54 -64t10 -79t38 -34t43 -39t-39 -102t-65 -74
t-14 -47t70 -33t128.5 8.5t120 51.5t69 32t29.5 -36q-1 -39 -62.5 -85.5t-136 -71t-150.5 -28.5q-112 0 -175 35t-95 93zM1011.99 970.029q78.3994 22.501 111.999 22.501q8.7998 0 25.5996 -4.9502q16.7988 -4.9502 28.7988 -9.00098q12 -4.0498 15.2002 -26.5498
q-0.799805 -27.9014 -13.2002 -34.2012q-12.3994 -6.30078 -29.5996 -5.40039q-17.1992 0.900391 -25.5996 -8.10059q-8.39941 -9 -34.3994 -15.75q-25.999 -6.75 -102.398 -41.4014q-76.3984 -34.6504 -98.7979 -35.1006q-22.4004 -0.450195 -73.5996 -3.15039
t-65.5986 -0.899414q-14.3994 1.7998 -65.999 -8.10059t-109.198 -9.90039q-28.7998 1.7998 -33.5996 16.2002t-26.3994 7.65039t-38.7998 3.60059q-17.1992 10.3496 -20.3994 55.3506q0 12.6006 13.2002 30.6016q13.1992 18 33.999 21.6006
q20.7998 3.59961 77.999 -9.90039q57.1992 -13.501 98.3984 8.5498t60.7988 10.3506t95.999 -9.4502q76.3984 2.25 175.597 45.4512z" />
    <glyph glyph-name="Abreve" unicode="&#x102;" horiz-adv-x="1756" 
d="M1520 946q72 152 39 228t-82 92.5t-103 6t-218 -98.5t-264 -176t-185 -197t-207 -240.5t-159 -254t-27 -180.5t56 -55t148 38.5t288 152t347 258.5t367 426zM1862 176q-182 -116 -383 -154t-289 -24t-119 81t-19 147q-90 -54 -175 -77t-184 -69t-199 -101t-180 -59
q-88 4 -121 41t-33 176q0 103 71 231.5t157 246t197 252.5t212 235t212 172t230 127t153.5 60.5t62.5 5.5q41 -1 95 -21t115 -78t70 -131t-67 -227t-118 -213t-9 -61t30 -38t-68.5 -130t-139 -157t-85.5 -136t28 -110t119 -27t175 39t159 51t103 -52zM2112.69 2036
q-14.2998 -51 -70.9482 -118.5q-56.6494 -67.5 -129.798 -113.5q-73.1475 -46 -158.946 -49q-61.5986 3 -109.447 21t-81.9482 60.5t-46.749 97t-14.8496 91.5q3.2998 32 20.3496 43t51.1484 15q52.7988 -5 58.2988 -50t35.1992 -95t75.8984 -63t101.748 11.5t96.7979 56.5
t71.498 68.5t101.748 24.5z" />
    <glyph glyph-name="abreve" unicode="&#x103;" horiz-adv-x="1129" 
d="M375 182q163 78 223 121t70 80t-7 77t-80 34t-136 -44t-147 -100t-94 -111t19 -76t152 19zM568 130q-82 -22 -147 -58t-126 -54t-135 -18q-51 0 -105.5 47t-54.5 167q2 63 107 164.5t246 177.5t251 76q98 0 139 -29t54 -64t10 -79t38 -34t43 -39t-39 -102t-65 -74
t-14 -47t70 -33t128.5 8.5t120 51.5t69 32t29.5 -36q-1 -39 -62.5 -85.5t-136 -71t-150.5 -28.5q-112 0 -175 35t-95 93zM1262.31 1183q-11.7002 -51 -58.0518 -118.5q-46.3506 -67.5 -106.202 -113.5q-59.8525 -46 -130.054 -49q-50.4014 3 -89.5527 21t-67.0518 60.5
t-38.251 97t-12.1504 91.5q2.7002 32 16.6504 43t41.8516 15q43.2012 -5 47.7012 -50t28.8008 -95t62.1016 -63t83.252 11.5t79.2021 56.5t58.502 68.5t83.252 24.5z" />
    <glyph glyph-name="Aogonek" unicode="&#x104;" horiz-adv-x="2109" 
d="M1627 786q127 -10 191 0t99 28t84 68t121.5 152.5t176 207t178.5 164.5t80 104t-60 18t-125 -79t-200 -158t-255 -207t-290 -298zM1786 622q-170 0 -368 -20q-246 -200 -429 -335t-273 -175t-155 -65t-179 -21q-76 26 -113 68t-63 178q6 114 23 164t45 110t88 118t110 63
t80 -33t0 -98t-85 -100t-63 -117t22 -125t104.5 -44t222.5 84.5t280.5 171t218.5 166.5q-290 10 -295 55t37 70t422 37q216 182 456 395t392 335t312 252h60q66 -34 111 -87t-23 -148t-201.5 -227t-430.5 -498q466 38 1160 50l40 -44l-10 -30q-50 -60 -265 -60t-418 -10
t-385 -20t-262 -30q-170 -156 -310 -298t-148 -165t91 -20t250 24t293.5 102t180.5 27t-142.5 -146t-315.5 -117t-205 -41t-164 -22q-137 17 -151.5 76.5t10.5 114.5t153 165t292 270zM1435 -6l62 -3q-22 -74 -14 -149.5t53.5 -129t120 -62.5t112.5 16.5t48 -5.5
q-28 -54 -99.5 -87t-163.5 -33q-73 0 -128.5 54.5t-55.5 167.5q0 62 15.5 122t49.5 109z" />
    <glyph glyph-name="aogonek" unicode="&#x105;" horiz-adv-x="1128" 
d="M375 182q163 78 223 121t70 80t-7 77t-80 34t-136 -44t-147 -100t-94 -111t19 -76t152 19zM568 130q-82 -22 -147 -58t-126 -54t-135 -18q-51 0 -105.5 47t-54.5 167q2 63 107 164.5t246 177.5t251 76q98 0 139 -29t54 -64t10 -79t38 -34t43 -39t-39 -102t-65 -74
t-14 -47t70 -33t128.5 8.5t120 51.5t69 32t29.5 -36q-1 -39 -62.5 -85.5t-136 -71t-150.5 -28.5q-112 0 -175 35t-95 93zM761.701 1.2002l55.8018 -2.7002q-19.8008 -66.6016 -12.6006 -134.554t48.1514 -116.104t108.003 -56.251q67.0518 -8.10059 101.253 14.8506
q34.2012 22.9502 43.2012 -4.9502q-25.2002 -48.6016 -89.5527 -78.3027q-64.3516 -29.7002 -147.153 -29.7002q-65.7021 0 -115.653 49.0508q-49.9512 49.0518 -49.9512 150.754q0 55.8018 13.9502 109.804q13.9502 54.001 44.5508 98.1025z" />
    <glyph glyph-name="Cacute" unicode="&#x106;" horiz-adv-x="1399" 
d="M1542 265q-12 -66 -88 -109t-184.5 -95.5t-262 -109t-313.5 -56.5q-122 3 -235.5 30.5t-190 126.5t-78.5 220q3 140 78.5 341t242 370.5t386.5 309.5t447.5 224.5t366.5 84.5q112 -3 181.5 -42.5t94 -95t24.5 -147.5q0 -62 -55.5 -155t-188.5 -188.5t-256.5 -145.5
t-202 -54.5t-138.5 27t-87 97t0 146t80 122.5t110 45.5t76 -42.5q-20 -60 -62.5 -54t-40.5 -69.5t48.5 -106t173.5 4t250.5 110t162 150.5t19 152t-139 96t-246.5 -8t-318.5 -111.5t-409 -259t-304 -374.5t-77.5 -357.5t93 -212t245 -64.5t331.5 47.5t257 105.5t133 66.5
t77.5 -19.5zM880 1844q5.2002 27 25.3496 42.5q20.1504 15.5 57.8496 20.5t101.399 27.5q63.6992 22.5 118.299 67t99.4492 69q44.8486 24.5 58.499 48q13.6494 23.5 61.749 24.5q42.9004 -5 52.6494 -13q9.75 -8 16.25 -19q-1.2998 -5 -13.6494 -11.5t-22.75 -24.5
q-10.3994 -18 -45.499 -33q-35.1006 -15 -91 -64.5t-100.099 -76.5t-81.8994 -38q-37.6992 -11 -56.5498 -23q-18.8496 -12 -47.4492 -23.5t-67.5996 -11.5q-40.2988 6 -50.6992 10.5q-10.3994 4.5 -14.2998 28.5z" />
    <glyph glyph-name="cacute" unicode="&#x107;" horiz-adv-x="709" 
d="M756 202q-8 -44 -37 -60t-80 -40t-108 -42t-127 -35t-111 -22t-83 -5q-38 0 -82.5 10t-87 48t-42.5 114q4 56 34 116t78 116t108 96t107 59t62 34t56 30t75 15q28 -2 47 -14t28 -31t-4 -40t-38 -42t-29 -52t-38 -36t-74 9t-69 10t-67 -47t-67 -82t-42 -78t6 -71t54 -42
t103 -3t138 28t137 45t97 41t56 -29zM662 960q4 27 19.5 42.5t44.5 20.5t78 27.5t91 67t76.5 69t45 48t47.5 24.5q33 -5 40.5 -13t12.5 -19q-1 -5 -10.5 -11.5t-17.5 -24.5t-35 -33t-70 -64.5t-77 -76.5t-63 -38t-43.5 -23t-36.5 -23.5t-52 -11.5q-31 6 -39 10.5t-11 28.5z
" />
    <glyph glyph-name="Ccircumflex" unicode="&#x108;" horiz-adv-x="1400" 
d="M1542 265q-12 -66 -88 -109t-184.5 -95.5t-262 -109t-313.5 -56.5q-122 3 -235.5 30.5t-190 126.5t-78.5 220q3 140 78.5 341t242 370.5t386.5 309.5t447.5 224.5t366.5 84.5q112 -3 181.5 -42.5t94 -95t24.5 -147.5q0 -62 -55.5 -155t-188.5 -188.5t-256.5 -145.5
t-202 -54.5t-138.5 27t-87 97t0 146t80 122.5t110 45.5t76 -42.5q-20 -60 -62.5 -54t-40.5 -69.5t48.5 -106t173.5 4t250.5 110t162 150.5t19 152t-139 96t-246.5 -8t-318.5 -111.5t-409 -259t-304 -374.5t-77.5 -357.5t93 -212t245 -64.5t331.5 47.5t257 105.5t133 66.5
t77.5 -19.5zM1852.79 1881.83q66.2998 -62.1016 66.2998 -104.403q0 -12.6006 -6.5 -23.4004q-101.399 41.4014 -176.799 96.3027t-103.999 146.704q-140.398 -25.2012 -240.498 -73.8027q-100.099 -48.6006 -162.498 -96.3018q-62.3994 -47.7021 -123.499 -46.3516
q-61.0996 1.34961 -83.1992 22.0508q-22.0996 20.7002 -22.0996 50.4014q0 72.9014 92.2988 69.3018q105.299 -4.5 241.798 54.9014t198.898 119.703t161.198 67.502q62.3994 -25.2012 67.5996 -113.403t90.999 -169.204z" />
    <glyph glyph-name="ccircumflex" unicode="&#x109;" horiz-adv-x="711" 
d="M756 202q-8 -44 -37 -60t-80 -40t-108 -42t-127 -35t-111 -22t-83 -5q-38 0 -82.5 10t-87 48t-42.5 114q4 56 34 116t78 116t108 96t107 59t62 34t56 30t75 15q28 -2 47 -14t28 -31t-4 -40t-38 -42t-29 -52t-38 -36t-74 9t-69 10t-67 -47t-67 -82t-42 -78t6 -71t54 -42
t103 -3t138 28t137 45t97 41t56 -29zM1073.42 1045.83q45.9014 -62.1016 45.9014 -104.403q0 -12.6006 -4.5 -23.4004q-70.2021 41.4014 -122.403 96.3027t-72.002 146.704q-97.2031 -25.2012 -166.505 -73.8027q-69.3018 -48.6006 -112.503 -96.3018
q-43.2012 -47.7021 -85.502 -46.3516q-42.3018 1.34961 -57.6016 22.0508q-15.3008 20.7002 -15.3008 50.4014q0 72.9014 63.9014 69.3018q72.9023 -4.5 167.405 54.9014q94.502 59.4014 137.703 119.703t111.604 67.502q43.2012 -25.2012 46.8008 -113.403
q3.60059 -88.2021 63.002 -169.204z" />
    <glyph glyph-name="Cdot" unicode="&#x10a;" horiz-adv-x="1400" 
d="M1542 265q-12 -66 -88 -109t-184.5 -95.5t-262 -109t-313.5 -56.5q-122 3 -235.5 30.5t-190 126.5t-78.5 220q3 140 78.5 341t242 370.5t386.5 309.5t447.5 224.5t366.5 84.5q112 -3 181.5 -42.5t94 -95t24.5 -147.5q0 -62 -55.5 -155t-188.5 -188.5t-256.5 -145.5
t-202 -54.5t-138.5 27t-87 97t0 146t80 122.5t110 45.5t76 -42.5q-20 -60 -62.5 -54t-40.5 -69.5t48.5 -106t173.5 4t250.5 110t162 150.5t19 152t-139 96t-246.5 -8t-318.5 -111.5t-409 -259t-304 -374.5t-77.5 -357.5t93 -212t245 -64.5t331.5 47.5t257 105.5t133 66.5
t77.5 -19.5zM1758 1894q-78 0 -113 47t-35 86q1 58 40 79.5t60 21.5q33 -1 54.5 -20.5t49 -22t39.5 -40t12 -59.5q0 -19 -19.5 -53.5t-87.5 -38.5z" />
    <glyph glyph-name="cdot" unicode="&#x10b;" horiz-adv-x="708" 
d="M756 202q-8 -44 -37 -60t-80 -40t-108 -42t-127 -35t-111 -22t-83 -5q-38 0 -82.5 10t-87 48t-42.5 114q4 56 34 116t78 116t108 96t107 59t62 34t56 30t75 15q28 -2 47 -14t28 -31t-4 -40t-38 -42t-29 -52t-38 -36t-74 9t-69 10t-67 -47t-67 -82t-42 -78t6 -71t54 -42
t103 -3t138 28t137 45t97 41t56 -29zM807.203 865.024q-70.2012 0 -101.702 42.3008q-31.501 42.3018 -31.501 77.4023q0.900391 52.2012 36.001 71.5518t54.001 19.3506q29.7012 -0.899414 49.0518 -18.4502t44.1016 -19.8008q24.75 -2.25 35.5508 -36.001
q10.7998 -33.751 10.7998 -53.5518q0 -17.0996 -17.5498 -48.1504q-17.5508 -31.0508 -78.7529 -34.6514z" />
    <glyph glyph-name="Ccaron" unicode="&#x10c;" horiz-adv-x="1400" 
d="M1542 265q-12 -66 -88 -109t-184.5 -95.5t-262 -109t-313.5 -56.5q-122 3 -235.5 30.5t-190 126.5t-78.5 220q3 140 78.5 341t242 370.5t386.5 309.5t447.5 224.5t366.5 84.5q112 -3 181.5 -42.5t94 -95t24.5 -147.5q0 -62 -55.5 -155t-188.5 -188.5t-256.5 -145.5
t-202 -54.5t-138.5 27t-87 97t0 146t80 122.5t110 45.5t76 -42.5q-20 -60 -62.5 -54t-40.5 -69.5t48.5 -106t173.5 4t250.5 110t162 150.5t19 152t-139 96t-246.5 -8t-318.5 -111.5t-409 -259t-304 -374.5t-77.5 -357.5t93 -212t245 -64.5t331.5 47.5t257 105.5t133 66.5
t77.5 -19.5zM2109 2071.43q0 -72.9014 -71 -69.3018q-81 4.5 -186 -54.9014t-153 -119.703t-124 -67.502q-48 25.2002 -52 113.403q-4 88.2021 -70 169.204q-51 62.1016 -51 104.403q0 12.5996 5 23.4004q78 -41.4014 136 -96.3027t80 -146.704q108 25.2012 185 73.8018
q77 48.6016 125 96.3027t95 46.3516t64 -22.0508q17 -20.7002 17 -50.4014z" />
    <glyph glyph-name="ccaron" unicode="&#x10d;" horiz-adv-x="709" 
d="M756 202q-8 -44 -37 -60t-80 -40t-108 -42t-127 -35t-111 -22t-83 -5q-38 0 -82.5 10t-87 48t-42.5 114q4 56 34 116t78 116t108 96t107 59t62 34t56 30t75 15q28 -2 47 -14t28 -31t-4 -40t-38 -42t-29 -52t-38 -36t-74 9t-69 10t-67 -47t-67 -82t-42 -78t6 -71t54 -42
t103 -3t138 28t137 45t97 41t56 -29zM1137.32 1146.43q0 -72.9014 -63.9014 -69.3018q-72.9023 4.5 -167.405 -54.9014q-94.502 -59.4014 -137.703 -119.703t-111.604 -67.502q-43.2012 25.2002 -46.8008 113.403q-3.60059 88.2021 -63.002 169.204
q-45.9014 62.1016 -45.9014 104.403q0 12.5996 4.5 23.4004q70.2021 -41.4014 122.403 -96.3027t72.002 -146.704q97.2031 25.2012 166.505 73.8018q69.3018 48.6016 112.503 96.3027t85.502 46.3516q42.3018 -1.34961 57.6016 -22.0508q15.3008 -20.7002 15.3008 -50.4014z
" />
    <glyph glyph-name="Dcaron" unicode="&#x10e;" horiz-adv-x="2065" 
d="M1235 771.321q149 153.903 252 262.807t211 270.907q-128 93.6025 -202 118.804q-74 25.2002 -137 18.9004t-123 -46.8018q-60 -40.501 -77 -119.703t-2.5 -201.605t78.5 -303.308zM1316 640.817q110 -239.406 326 -360.01q164 142.204 232 314.108t48.5 333.909
t-90.5 252.907q-164 -191.705 -248 -277.208q-84 -85.502 -268 -263.707zM1027 376.21q-55 -43.2012 -131 -107.103q-76 -63.9023 -48 -117.903t116 -105.303t187 -47.7012q99 3.59961 184 47.7012q85 44.1006 187 132.304q-98 55.8008 -171 129.604
q-73 73.8018 -159 221.406q-110 -109.804 -165 -153.005zM1950 1612.84q98 -39.6016 86 -110.253q-12 -70.6523 -107 -204.756q123 -145.804 143 -332.108q20 -186.306 -45 -390.611q-65 -204.305 -253 -378.91q105 -40.501 199 -27.4502q94 13.0498 144.5 42.751
t78.5 -42.3008q-128 -100.803 -261 -112.504q-133 -11.7002 -265 38.7012q-90 -59.4014 -162 -113.402q-72 -54.002 -141 -94.5029t-149 -54.9014q-84 1.7998 -176 18q-92 16.2012 -195 81.9023q-103 65.7021 -144 126.903q-41 61.2021 -100 17.1006t-130 -64.8018
t-138 -16.2002t-121 58.502l-8 28.8008q10 54.001 65 110.702q55 56.7021 136 90.0029t182 20.7002t201 56.7021q100 69.3018 316 293.407q-69 168.305 -87.5 291.158t-16.5 212.406q2 89.5518 21 146.254q19 56.7012 57 114.303t125 103.503t165 52.2012
q78 6.30078 167 -23.4004t227 -129.604q74 90.002 105 135.453t81 56.252zM2252 2065.43q0 -72.9014 -71 -69.3018q-81 4.5 -186 -54.9014t-153 -119.703t-124 -67.502q-48 25.2002 -52 113.403q-4 88.2021 -70 169.204q-51 62.1016 -51 104.403q0 12.5996 5 23.4004
q78 -41.4014 136 -96.3027t80 -146.704q108 25.2012 185 73.8018q77 48.6016 125 96.3027t95 46.3516t64 -22.0508q17 -20.7002 17 -50.4014z" />
    <glyph glyph-name="dcaron" unicode="&#x10f;" horiz-adv-x="1834" 
d="M2150.39 1163q-3.2002 -32 -20.7998 -54t-32.7988 -41q-15.2002 -19 -46.3994 -54q-31.2002 -35 -59.999 -70q-28.7998 -35 -51.1992 -52q-22.4004 -17 -14.4004 -34t-16.7998 -31q-24.7988 -14 -28.7988 -30t-32.7998 -32q-4.7998 -2 -12.7998 -4h-43.1992
q-16 2 -20.7998 10v4q0 6 9.59961 14q19.2002 18 25.5996 40q6.40039 22 28 29t21.5996 41q76.7988 90 94.3984 121t42.3994 43t26.3994 35t4 45t29.5996 44q11.2002 8 28.7998 10q9.59961 4 36.7988 4q22.4004 -4 30.3994 -20zM342 323q-119 -107 -164.5 -176t-26.5 -88
t111 27t176 100t122 108t48 111t-11 77t-67 -3t-188 -156zM576 154q-44 -34 -99 -69t-104 -61t-102 -57t-85 -49t-130 -22q-70 8 -104 58q-22 36 -22 76q14 70 58 124t96 117t107 114t109 99t121 84t132 52t106 11t71 -35t33 -62t10 -68t42 -3t60 73t80 122t96 125t109 113
t142 140t139 106t97 40q46 -10 61 -25t25 -55q-20 -66 -83 -139t-135 -148t-122 -109t-101 -57t-111 -88t-128 -140t-96 -125t-61 -86t-33 -63t35 -35t78 27t122 49t120 40t50 -7t13 -54t-57 -53t-113 -45t-93 -29t-115 -33t-131 -6t-76 49t-11 104z" />
    <glyph glyph-name="dmacron" unicode="&#x111;" horiz-adv-x="1134" 
d="M348 338q-114 -120 -165 -190t-32 -89t111 27t176 100t122 108t48 111t-11 77t-67 -3t-182 -141zM576 154q-44 -34 -99 -69t-104 -61t-119 -73t-198 -55q-70 8 -104 58q-22 36 -22 76q14 70 58 124t96 117t161 162t176 135t132 52t106 11t71 -35t33 -62t10 -68t42 -3
t60 73t80 122t96 125t109 113t142 140t139 106t97 40q46 -10 61 -25t25 -55q-20 -66 -83 -139t-135 -148t-122 -109t-101 -57t-111 -88t-128 -140t-96 -125t-61 -86t-33 -63t35 -35t78 27t122 49t120 40t54 -28t-48 -86t-154 -61t-167 -46t-131 -6t-67 50t-20 103zM1171 916
q-147 -9 -211 -28.5t-90 -27t-34 29t33.5 55.5t112 40t308.5 47q-65 -75 -119 -116zM1517 932q50 52 80 108q392 -9 500 -4t149 -20q-8 -41 -49 -53.5t-206.5 -16t-473.5 -14.5z" />
    <glyph glyph-name="Emacron" unicode="&#x112;" horiz-adv-x="1413" 
d="M1646 1309q0 -87 -26.5 -160t-77.5 -129.5t-106.5 -97t-103 -40.5t-32.5 49.5t63 81.5t88 86t48 137t-29.5 136t-117.5 71t-193.5 3.5t-285.5 -121t-237 -180t-114.5 -134t-70.5 -31.5t-3.5 113t75.5 123.5t140 101.5t179 122t218.5 105.5t224.5 53.5q100 -3 181 -39
t130.5 -100.5t49.5 -150.5zM1506 282q37 -47 -29 -111.5t-147 -99.5t-177 -70t-191.5 -55t-197.5 -29q-117 2 -166 17t-126 41t-134 67t-134 132q3 89 34 112.5t85.5 56.5t120.5 81t92.5 106.5t-8.5 76t-29 53t-15.5 50.5t-28.5 55t21.5 68t72.5 37.5t73 -15t60.5 29
t88.5 151.5t100.5 181t85 64t23 -110t-63.5 -150.5t-88.5 -129t-13.5 -96.5t25.5 -71t39.5 -47.5t85.5 2.5t84.5 20t81.5 34.5t74.5 20.5t39 -26.5t-29.5 -59t-109.5 -80.5t-188.5 -51.5t-185.5 28.5q-44 -89 -74 -135t-79.5 -90.5t-87 -69.5t-36 -76t93 -76.5t170 -31.5
t201.5 -1.5t257.5 52.5t179.5 69t150 76zM1395 2120q98 25 140 25q11 0 32 -5.5t36 -10t19 -29.5q-1 -31 -16.5 -38t-37 -6t-32 -9t-43 -17.5t-128 -46t-123.5 -39t-92 -3.5t-82 -1t-82.5 -9t-136.5 -11q-36 2 -42 18t-33 8.5t-48.5 4t-25.5 61.5q0 14 16.5 34t42.5 24
t97.5 -11t123 9.5t76 11.5t120 -10.5t219.5 50.5z" />
    <glyph glyph-name="emacron" unicode="&#x113;" horiz-adv-x="770" 
d="M160 301q85 53 147.5 102.5t47 75t-60 -0.5t-83 -76t-51.5 -101zM856 200q-26 -63 -101 -103.5t-178 -71.5t-231 -31q-136 0 -197.5 21.5t-110 66t-48.5 132.5q0 84 26 140t84.5 123t129 113t156.5 46q62 0 108 -33t39 -114t-97 -145t-167.5 -102t-67 -57.5t56.5 -35
t151 -16.5t187 20t133 45t80 32t47 -30zM804.509 984.985q68.6006 20 98.001 20q7.7002 0 22.4004 -4.40039q14.7012 -4.39941 25.2012 -8q10.5 -3.59961 13.2998 -23.5996q-0.700195 -24.7998 -11.5498 -30.3994q-10.8506 -5.59961 -25.9004 -4.7998
q-15.0508 0.799805 -22.4004 -7.2002q-7.35059 -8 -30.1006 -13.999q-22.751 -6 -89.6016 -36.7998q-66.8516 -30.7998 -86.4521 -31.1992q-19.5996 -0.400391 -64.4004 -2.80078q-44.8008 -2.39941 -57.4014 -0.799805q-12.6006 1.60059 -57.751 -7.19922t-95.5518 -8.7998
q-25.2002 1.59961 -29.4004 14.3994t-23.1006 6.7998t-33.9502 3.2002q-15.0508 9.19922 -17.8506 49.1992q0 11.1992 11.5498 27.1992q11.5508 16 29.751 19.2002q18.2002 3.19922 68.251 -8.7998q50.0508 -12 86.1016 7.59961t53.2012 9.2002
q17.1504 -10.4004 84.001 -8.40039q66.8516 2 153.653 40.3994z" />
    <glyph glyph-name="Ebreve" unicode="&#x114;" horiz-adv-x="1399" 
d="M1604 1310q-26 -98 -65 -139t-90 -47t-65 29t-7 53t41 59t-5 90t-108 74t-135 16t-103 -45t-43 -96t25 -129t77 -117t90 -93t47 -82t-29 -76t-109 -65t-183 -100t-213 -126t-174 -103t-95 -120t24 -122t146 -70t185 -13t174 25t175 55t312 94q6 -100 -85 -140t-184 -85
t-211 -82t-284 -47q-130 6 -209 18t-152 56t-108 108t-43 144q4 72 43 147t126 151t218 125t228 103t148 101t34 101t-87 105t-88 130t-7 138t27 101t62 77t110 58t192 31l116 -8q164 -44 218 -112t64 -172zM1812 2095q-13 -51 -64.5 -118.5t-118 -113.5t-144.5 -49
q-56 3 -99.5 21t-74.5 60.5t-42.5 97t-13.5 91.5q3 32 18.5 43t46.5 15q48 -5 53 -50t32 -95t69 -63t92.5 11.5t88 56.5t65 68.5t92.5 24.5z" />
    <glyph glyph-name="ebreve" unicode="&#x115;" horiz-adv-x="770" 
d="M160 301q85 53 147.5 102.5t47 75t-60 -0.5t-83 -76t-51.5 -101zM856 200q-26 -63 -101 -103.5t-178 -71.5t-231 -31q-136 0 -197.5 21.5t-110 66t-48.5 132.5q0 84 26 140t84.5 123t129 113t156.5 46q62 0 108 -33t39 -114t-97 -145t-167.5 -102t-67 -57.5t56.5 -35
t151 -16.5t187 20t133 45t80 32t47 -30zM1041 1104q-13 -51 -64.5 -118.5t-118 -113.5t-144.5 -49q-56 3 -99.5 21t-74.5 60.5t-42.5 97t-13.5 91.5q3 32 18.5 43t46.5 15q48 -5 53 -50t32 -95t69 -63t92.5 11.5t88 56.5t65 68.5t92.5 24.5z" />
    <glyph glyph-name="Edot" unicode="&#x116;" horiz-adv-x="1413" 
d="M1646 1309q0 -87 -26.5 -160t-77.5 -129.5t-106.5 -97t-103 -40.5t-32.5 49.5t63 81.5t88 86t48 137t-29.5 136t-117.5 71t-193.5 3.5t-285.5 -121t-237 -180t-114.5 -134t-70.5 -31.5t-3.5 113t75.5 123.5t140 101.5t179 122t218.5 105.5t224.5 53.5q100 -3 181 -39
t130.5 -100.5t49.5 -150.5zM1506 282q37 -47 -29 -111.5t-147 -99.5t-177 -70t-191.5 -55t-197.5 -29q-117 2 -166 17t-126 41t-134 67t-134 132q3 89 34 112.5t85.5 56.5t120.5 81t92.5 106.5t-8.5 76t-29 53t-15.5 50.5t-28.5 55t21.5 68t72.5 37.5t73 -15t60.5 29
t88.5 151.5t100.5 181t85 64t23 -110t-63.5 -150.5t-88.5 -129t-13.5 -96.5t25.5 -71t39.5 -47.5t85.5 2.5t84.5 20t81.5 34.5t74.5 20.5t39 -26.5t-29.5 -59t-109.5 -80.5t-188.5 -51.5t-185.5 28.5q-44 -89 -74 -135t-79.5 -90.5t-87 -69.5t-36 -76t93 -76.5t170 -31.5
t201.5 -1.5t257.5 52.5t179.5 69t150 76zM1493 1885q-78 0 -113 47t-35 86q1 58 40 79.5t60 21.5q33 -1 54.5 -20.5t49 -22t39.5 -40t12 -59.5q0 -19 -19.5 -53.5t-87.5 -38.5z" />
    <glyph glyph-name="edot" unicode="&#x117;" horiz-adv-x="770" 
d="M160 301q85 53 147.5 102.5t47 75t-60 -0.5t-83 -76t-51.5 -101zM856 200q-26 -63 -101 -103.5t-178 -71.5t-231 -31q-136 0 -197.5 21.5t-110 66t-48.5 132.5q0 84 26 140t84.5 123t129 113t156.5 46q62 0 108 -33t39 -114t-97 -145t-167.5 -102t-67 -57.5t56.5 -35
t151 -16.5t187 20t133 45t80 32t47 -30zM727.203 849.024q-70.2012 0 -101.702 42.3008q-31.501 42.3018 -31.501 77.4023q0.900391 52.2012 36.001 71.5518t54.001 19.3506q29.7012 -0.899414 49.0518 -18.4502t44.1016 -19.8008q24.75 -2.25 35.5508 -36.001
q10.7998 -33.751 10.7998 -53.5518q0 -17.0996 -17.5498 -48.1504q-17.5508 -31.0508 -78.7529 -34.6514z" />
    <glyph glyph-name="Eogonek" unicode="&#x118;" horiz-adv-x="1399" 
d="M1604 1310q-26 -98 -65 -139t-90 -47t-65 29t-7 53t41 59t-5 90t-108 74t-135 16t-103 -45t-43 -96t25 -129t77 -117t90 -93t47 -82t-29 -76t-109 -65t-183 -100t-213 -126t-174 -103t-95 -120t24 -122t146 -70t185 -13t174 25t175 55t312 94q6 -100 -85 -140t-184 -85
t-211 -82t-284 -47q-130 6 -209 18t-152 56t-108 108t-43 144q4 72 43 147t126 151t218 125t228 103t148 101t34 101t-87 105t-88 130t-7 138t27 101t62 77t110 58t192 31l116 -8q164 -44 218 -112t64 -172zM656 -99l62 -3q-22 -74 -14 -149.5t53.5 -129t120 -62.5
t112.5 16.5t48 -5.5q-28 -54 -99.5 -87t-163.5 -33q-73 0 -128.5 54.5t-55.5 167.5q0 62 15.5 122t49.5 109z" />
    <glyph glyph-name="eogonek" unicode="&#x119;" horiz-adv-x="769" 
d="M160 301q85 53 147.5 102.5t47 75t-60 -0.5t-83 -76t-51.5 -101zM856 200q-26 -63 -101 -103.5t-178 -71.5t-231 -31q-136 0 -197.5 21.5t-110 66t-48.5 132.5q0 84 26 140t84.5 123t129 113t156.5 46q62 0 108 -33t39 -114t-97 -145t-167.5 -102t-67 -57.5t56.5 -35
t151 -16.5t187 20t133 45t80 32t47 -30zM310.399 -13.7998l49.5986 -2.7002q-17.5996 -66.6016 -11.1992 -134.554q6.39941 -67.9521 42.7988 -116.104t95.999 -56.251q59.5986 -8.10059 89.998 14.8506q30.4004 22.9502 38.3994 -4.9502
q-22.3994 -48.6016 -79.5986 -78.3027q-57.1992 -29.7002 -130.798 -29.7002q-58.3994 0 -102.798 49.0508q-44.3994 49.0518 -44.3994 150.754q0 55.8018 12.3994 109.804q12.3994 54.001 39.5996 98.1025z" />
    <glyph glyph-name="Ecaron" unicode="&#x11a;" horiz-adv-x="1399" 
d="M1604 1310q-26 -98 -65 -139t-90 -47t-65 29t-7 53t41 59t-5 90t-108 74t-135 16t-103 -45t-43 -96t25 -129t77 -117t90 -93t47 -82t-29 -76t-109 -65t-183 -100t-213 -126t-174 -103t-95 -120t24 -122t146 -70t185 -13t174 25t175 55t312 94q6 -100 -85 -140t-184 -85
t-211 -82t-284 -47q-130 6 -209 18t-152 56t-108 108t-43 144q4 72 43 147t126 151t218 125t228 103t148 101t34 101t-87 105t-88 130t-7 138t27 101t62 77t110 58t192 31l116 -8q164 -44 218 -112t64 -172zM2016 2031q0 -81 -71 -77q-81 5 -186 -61t-153 -133t-124 -75
q-48 28 -52 126t-70 188q-51 69 -51 116q0 14 5 26q78 -46 136 -107t80 -163q108 28 185 82t125 107t95 51.5t64 -24.5t17 -56z" />
    <glyph glyph-name="ecaron" unicode="&#x11b;" horiz-adv-x="769" 
d="M160 301q85 53 147.5 102.5t47 75t-60 -0.5t-83 -76t-51.5 -101zM856 200q-26 -63 -101 -103.5t-178 -71.5t-231 -31q-136 0 -197.5 21.5t-110 66t-48.5 132.5q0 84 26 140t84.5 123t129 113t156.5 46q62 0 108 -33t39 -114t-97 -145t-167.5 -102t-67 -57.5t56.5 -35
t151 -16.5t187 20t133 45t80 32t47 -30zM1096.59 1190q0 -81 -56.7998 -77q-64.7988 5 -148.798 -61q-83.998 -66 -122.397 -133t-99.1992 -75q-38.3994 28 -41.5986 126q-3.2002 98 -55.999 188q-40.7998 69 -40.7998 116q0 14 4 26q62.3994 -46 108.798 -107
q46.3994 -61 63.999 -163q86.3994 28 147.998 82q61.5996 54 99.999 107t75.998 51.5q37.5996 -1.5 51.1992 -24.5q13.6006 -23 13.6006 -56z" />
    <glyph glyph-name="Gcircumflex" unicode="&#x11c;" horiz-adv-x="1580" 
d="M866 998.282q240 -5.63965 365 53.5801q125 59.2207 197 141.94q72 82.7207 96 157.921t-34 118.91t-173 -7.0498q-115 -50.7607 -238 -196.931q-123 -146.171 -213 -268.371zM794 842.242q-181 -133.48 -271.5 -308.32q-90.5 -174.841 -110.5 -267.901
q-20 -93.0596 96 -88.3604q116 4.7002 392 154.631t356 190.82q80 40.8906 146 49.3506t96 -24.4404t-50 -151.341t-204 -224.66q-124 -106.221 -305 -299.86q-181 -193.641 -264 -390.102t161 78.96t376 368.481t558 410.781q-72 -180.48 -158 -235.001t-317 -233.12
q-231 -178.601 -345 -329.941q-114 -151.34 -216.5 -274.48t-199.5 -123.141q-90 0 -124 64.8604t-4 172.96q30 108.101 123 233.121t215 268.841t264 296.101t-21.5 48.8799t-282 -163.561t-236.5 -61.0996q-118 -0.94043 -193 40.4199t-75 146.641q0 119.38 103 289.99
t283 384.932q-182 62.04 -164 130.66t266 46.0596q326 378.821 474 492.092t290 124.55q156 -8.45996 212 -64.3896q56 -55.9307 62 -116.091q-22 -188 -178 -345.921q-156 -157.92 -316 -218.08t-438 -73.3203zM1801.58 1887.83q56.0986 -62.1016 56.0986 -104.403
q0 -12.6006 -5.5 -23.4004q-85.7979 41.4014 -149.597 96.3027t-87.998 146.704q-118.797 -25.2012 -203.495 -73.8027q-84.6982 -48.6006 -137.497 -96.3018q-52.7988 -47.7021 -104.498 -46.3516q-51.6982 1.34961 -70.3984 22.0508q-18.6992 20.7002 -18.6992 50.4014
q0 72.9014 78.0986 69.3018q89.0977 -4.5 204.595 54.9014q115.498 59.4014 168.297 119.703t136.396 67.502q52.7988 -25.2012 57.1992 -113.403q4.39941 -88.2021 76.998 -169.204z" />
    <glyph glyph-name="gcircumflex" unicode="&#x11d;" horiz-adv-x="984" 
d="M338 384q-56 -46 -91 -106t12 -95t122 -18t118 72t32 144t-74 69t-119 -66zM214 -112q-124 -72 -262 -155t-279 -185t-282 -246t-213 -228t-112 -163t-29 -142t74 -51t126 51t179 147t226 245t264 338t308 389zM402 62q-126 4 -207 7t-121 54t-37 114t87 136t171 117
t225 114h44q80 -38 111 -98t28 -114t-28 -101t-5 -70t112 1t190 72t214 0q-174 -120 -256 -146t-200 -70t-190 -88t-177 -144t-233 -276t-253 -329t-206 -250t-202 -208t-190 -142t-131 -39h-44q-118 34 -159 93t-53 161q24 120 124 260q218 240 334 329t244 178t287 178
t274 151t247 110zM1222.42 912.828q45.9014 -62.1016 45.9014 -104.403q0 -12.6006 -4.5 -23.4004q-70.2021 41.4014 -122.403 96.3027t-72.002 146.704q-97.2031 -25.2012 -166.505 -73.8027q-69.3018 -48.6006 -112.503 -96.3018q-43.2012 -47.7021 -85.502 -46.3516
q-42.3018 1.34961 -57.6016 22.0508q-15.3008 20.7002 -15.3008 50.4014q0 72.9014 63.9014 69.3018q72.9023 -4.5 167.405 54.9014q94.502 59.4014 137.703 119.703t111.604 67.502q43.2012 -25.2012 46.8008 -113.403q3.60059 -88.2021 63.002 -169.204z" />
    <glyph glyph-name="Gbreve" unicode="&#x11e;" horiz-adv-x="1580" 
d="M866 1019.54q240 -5.75977 365 54.7217t197 144.963q72 84.4824 96 161.284t-34 121.442q-58 44.6416 -173 -7.2002q-115 -51.8408 -238 -201.124q-123 -149.284 -213 -274.087zM794 860.18q-181 -136.323 -271.5 -314.887q-90.5 -178.564 -110.5 -273.606t96 -90.2422
t392 157.924q276 153.123 356 194.884q80 41.7617 146 50.4014q66 8.64062 96 -24.9609q30 -33.6006 -50 -154.563t-204 -229.445t-305 -306.246q-181 -197.765 -264 -398.409q-83 -200.646 161 80.6416q244 281.286 376 376.328q132 95.043 558 419.53
q-72 -184.324 -158 -240.006t-317 -238.085q-231 -182.404 -345 -336.968t-216.5 -280.327q-102.5 -125.763 -199.5 -125.763q-90 0 -124 66.2412q-34 66.2422 -4 176.645t123 238.085q93 127.684 215 274.566q122 146.884 264 302.407t-21.5 49.9209t-282 -167.044
t-236.5 -62.4014t-193 41.2812t-75 149.764q0 121.923 103 296.167q103 174.243 283 393.129q-182 63.3613 -164 133.442q18 70.082 266 47.041q326 386.89 474 502.572t290 127.202q156 -8.63965 212 -65.7607q56 -57.1221 62 -118.563q-22 -192.004 -178 -353.288
q-156 -161.283 -316 -222.725t-438 -74.8818zM1757.09 2122q-16.8994 -51 -83.8486 -118.5t-153.398 -113.5t-187.849 -49q-72.7988 3 -129.349 21t-96.8496 60.5q-40.2988 42.5 -55.249 97t-17.5498 91.5q3.90039 32 24.0498 43t60.4492 15q62.3994 -5 68.8994 -50
t41.5996 -95t89.6992 -63t120.249 11.5t114.398 56.5q48.75 32 84.5 68.5q35.749 36.5 120.248 24.5z" />
    <glyph glyph-name="gbreve" unicode="&#x11f;" horiz-adv-x="984" 
d="M338 384q-56 -46 -91 -106t12 -95t122 -18t118 72t32 144t-74 69t-119 -66zM214 -112q-124 -72 -262 -155t-279 -185t-282 -246t-213 -228t-112 -163t-29 -142t74 -51t126 51t179 147t226 245t264 338t308 389zM402 62q-126 4 -207 7t-121 54t-37 114t87 136t171 117
t225 114h44q80 -38 111 -98t28 -114t-28 -101t-5 -70t112 1t190 72t214 0q-174 -120 -256 -146t-200 -70t-190 -88t-177 -144t-233 -276t-253 -329t-206 -250t-202 -208t-190 -142t-131 -39h-44q-118 34 -159 93t-53 161q24 120 124 260q218 240 334 329t244 178t287 178
t274 151t247 110zM1374 1140q-13 -51 -64.5 -118.5t-118 -113.5t-144.5 -49q-56 3 -99.5 21t-74.5 60.5t-42.5 97t-13.5 91.5q3 32 18.5 43t46.5 15q48 -5 53 -50t32 -95t69 -63t92.5 11.5t88 56.5t65 68.5t92.5 24.5z" />
    <glyph glyph-name="Gdot" unicode="&#x120;" horiz-adv-x="1580" 
d="M866 1062q240 -6 365 57t197 151t96 168t-34 126.5t-173 -7.5t-238 -209.5t-213 -285.5zM794 896q-181 -142 -271.5 -328t-110.5 -285t96 -94t392 164.5t356 203t146 52.5t96 -26t-50 -161t-204 -239t-305 -319t-264 -415t161 84t376 392t558 437q-72 -192 -158 -250
t-317 -248t-345 -351t-216.5 -292t-199.5 -131q-90 0 -124 69t-4 184t123 248t215 286t264 315t-21.5 52t-282 -174t-236.5 -65t-193 43t-75 156q0 127 103 308.5t283 409.5q-182 66 -164 139t266 49q326 403 474 523.5t290 132.5q156 -9 212 -68.5t62 -123.5
q-22 -200 -178 -368t-316 -232t-438 -78zM1454 1917q-78 0 -113 47t-35 86q1 58 40 79.5t60 21.5q33 -1 54.5 -20.5t49 -22t39.5 -40t12 -59.5q0 -19 -19.5 -53.5t-87.5 -38.5z" />
    <glyph glyph-name="gdot" unicode="&#x121;" horiz-adv-x="984" 
d="M338 384q-56 -46 -91 -106t12 -95t122 -18t118 72t32 144t-74 69t-119 -66zM214 -112q-124 -72 -262 -155t-279 -185t-282 -246t-213 -228t-112 -163t-29 -142t74 -51t126 51t179 147t226 245t264 338t308 389zM402 62q-126 4 -207 7t-121 54t-37 114t87 136t171 117
t225 114h44q80 -38 111 -98t28 -114t-28 -101t-5 -70t112 1t190 72t214 0q-174 -120 -256 -146t-200 -70t-190 -88t-177 -144t-233 -276t-253 -329t-206 -250t-202 -208t-190 -142t-131 -39h-44q-118 34 -159 93t-53 161q24 120 124 260q218 240 334 329t244 178t287 178
t274 151t247 110zM941.203 805.024q-70.2012 0 -101.702 42.3008q-31.501 42.3018 -31.501 77.4023q0.900391 52.2012 36.001 71.5518t54.001 19.3506q29.7012 -0.899414 49.0518 -18.4502t44.1016 -19.8008q24.75 -2.25 35.5508 -36.001q10.7998 -33.751 10.7998 -53.5518
q0 -17.0996 -17.5498 -48.1504q-17.5508 -31.0508 -78.7529 -34.6514z" />
    <glyph glyph-name="Gcedilla" unicode="&#x122;" horiz-adv-x="1580" 
d="M866 1062q240 -6 365 57t197 151t96 168t-34 126.5t-173 -7.5t-238 -209.5t-213 -285.5zM794 896q-181 -142 -271.5 -328t-110.5 -285t96 -94t392 164.5t356 203t146 52.5t96 -26t-50 -161t-204 -239t-305 -319t-264 -415t161 84t376 392t558 437q-72 -192 -158 -250
t-317 -248t-345 -351t-216.5 -292t-199.5 -131q-90 0 -124 69t-4 184t123 248t215 286t264 315t-21.5 52t-282 -174t-236.5 -65t-193 43t-75 156q0 127 103 308.5t283 409.5q-182 66 -164 139t266 49q326 403 474 523.5t290 132.5q156 -9 212 -68.5t62 -123.5
q-22 -200 -178 -368t-316 -232t-438 -78zM678 -1156q0 -40 -27 -81.5t-80 -66.5t-136 -25q-63 0 -125.5 27.5t-62.5 61.5q6 19 21 23t64.5 -12t128.5 -0.5t75.5 85.5t-64.5 71.5t-64.5 38t23 65t45.5 57.5l77 -1q-67 -91 -3.5 -101.5t96 -55.5t32.5 -86z" />
    <glyph glyph-name="gcedilla" unicode="&#x123;" horiz-adv-x="984" 
d="M338 384q-56 -46 -91 -106t12 -95t122 -18t118 72t32 144t-74 69t-119 -66zM214 -112q-124 -72 -262 -155t-279 -185t-282 -246t-213 -228t-112 -163t-29 -142t74 -51t126 51t179 147t226 245t264 338t308 389zM402 62q-126 4 -207 7t-121 54t-37 114t87 136t171 117
t225 114h44q80 -38 111 -98t28 -114t-28 -101t-5 -70t112 1t190 72t214 0q-174 -120 -256 -146t-200 -70t-190 -88t-177 -144t-233 -276t-253 -329t-206 -250t-202 -208t-190 -142t-131 -39h-44q-118 34 -159 93t-53 161q24 120 124 260q218 240 334 329t244 178t287 178
t274 151t247 110zM400 851q0 40 27 81.5t80 66.5t136 25q63 0 125.5 -27.5t62.5 -61.5q-6 -19 -21 -23t-64.5 12t-128.5 0.5t-75.5 -85.5t64.5 -71.5t64.5 -38t-23 -65t-45.5 -57.5l-77 1q67 91 3.5 101.5t-96 55.5t-32.5 86z" />
    <glyph glyph-name="Hcircumflex" unicode="&#x124;" horiz-adv-x="2142" 
d="M1482 977.941q181 192.277 267 296.695t128 166.517t24.5 92.458t-64.5 29.4395t-108.5 -44.1592t-133.5 -110.397q-72 -67.1592 -129 -149.037q-57 -81.8789 -64.5 -154.558t80.5 -126.958zM1925 495.871q-96 -105.799 -186.5 -207.456q-90.5 -101.658 -247.5 -265.415
l-82 -34.04q-86 41.3994 -83 102.578t236 289.335l215 203.316q-102 113.157 -309 167.437q-324 -276.915 -443.5 -362.474q-119.5 -85.5576 -246.5 -149.957q-127 -64.3984 -256 -99.8184q-129 -35.4189 -199.5 -29.8994q-70.5 5.52051 -124 40.4795
q-53.5 34.96 -76 96.1387t-22.5 132.938q0 18.3994 6 57.0391q6 38.6387 52 97.9775t110.5 92.459q64.5 33.1191 133.5 38.6387q69 5.52051 97.5 -16.0996q28.5 -21.6191 -8.5 -71.7588q-37 -50.1387 -114.5 -58.4189q-77.5 -8.2793 -113.5 -55.1982
q-36 -46.9199 -7.5 -110.398t83 -85.0986q54.5 -21.6191 168 17.0195q113.5 38.6396 266 118.678q152.5 80.0391 281.5 188.597q129 108.559 256 245.636q-82 116.838 -89 187.677q-7 70.8379 16.5 127.417t93 145.817t135.5 151.798q66 62.5586 164 132.018
q98 69.458 156.5 89.2383q58.5 19.7793 95.5 19.7793q30 0 77.5 -15.1797t79 -72.6787t10 -129.718t-103.5 -182.616q-82 -110.398 -171 -209.296q-89 -98.8984 -171 -185.377q238 -64.3984 313.5 -88.7783t122 71.7588q46.5 96.1377 149.5 200.556t151.5 194.117
q48.5 89.6982 111 141.217q62.5 51.5195 115.5 63.0186q53 11.5 89 -8.2793t44 -78.6582q-2 -120.519 -169 -224.017t-272.5 -224.936t-106.5 -192.276t-6 -143.058t-67.5 -103.498t-152.5 -8.2793zM2946.42 1911.83q71.4014 -62.1016 71.4014 -104.403
q0 -12.6006 -7 -23.4004q-109.202 41.4014 -190.403 96.3027t-112.002 146.704q-151.203 -25.2012 -259.005 -73.8027q-107.802 -48.6006 -175.003 -96.3018q-67.2012 -47.7021 -133.002 -46.3516q-65.8018 1.34961 -89.6016 22.0508q-23.8008 20.7002 -23.8008 50.4014
q0 72.9014 99.4014 69.3018q113.402 -4.5 260.405 54.9014q147.002 59.4014 214.203 119.703t173.604 67.502q67.2012 -25.2012 72.8008 -113.403q5.60059 -88.2021 98.002 -169.204z" />
    <glyph glyph-name="hcircumflex" unicode="&#x125;" horiz-adv-x="1283" 
d="M253 244q-233 -111 -289 -111.5t-67 53.5q14 23 101 59t180 77t197 103.5t258 195.5t277 256l185 185t94 104t78 54q106 -32 109 -82t-53 -114t-220 -207t-327 -283t-223 -185.5t-94 -106.5q194 106 264 139t133 47t107 -3t50 -70t-30 -110t-56 -83t-10 -43t86 -4t156 48
t130 59t74 14t36 -78q-186 -92 -253 -114t-137.5 -33t-105.5 -11q-51 0 -103.5 18t-62.5 74t56 113t66 77t-53 -7t-126 -63t-127 -63t-127 -64t-133 -63t-123 -29q-50 0 -66.5 41.5t33.5 84.5t116 125zM2012 1805q51 -69 51 -116q0 -14 -5 -26q-78 46 -136 107t-80 163
q-108 -28 -185 -82t-125 -107t-95 -51.5t-64 24.5t-17 56q0 81 71 77q81 -5 186 61t153 133t124 75q48 -28 52 -126t70 -188z" />
    <glyph glyph-name="Hbar" unicode="&#x126;" horiz-adv-x="2163" 
d="M1169 784q-82 53 -100.5 193.5t9 236t115 212.5t190.5 201.5t232.5 148t266.5 63.5q30 0 77.5 -16.5t79 -79t10 -141t-93 -183t-171.5 -224.5q41 -20 100 -46.5t199 -86.5q208 226 256.5 323.5t111 153.5t115.5 68.5t89 -9t44 -85.5q-2 -131 -153 -230
q-157 -109 -314 -289q91 -40 192 -80t86 -119t-49.5 -53t-74 29t-89.5 31.5t-157 80.5q-153 -193 -183 -303q56 -35 53 -86.5t-65.5 -85.5t-152.5 -9q-144 -196 -224 -296.5t-159 -114.5q-86 45 -41 128.5t276 378.5q-236 110 -343 185q-157 -164 -403.5 -327t-375.5 -201.5
t-199.5 -32.5t-146.5 84t-76 229q0 84 52 148.5t116.5 100.5t133.5 42t97.5 -17.5t-8.5 -78t-114.5 -63.5t-113.5 -60t-7.5 -120t139.5 -69.5t303 105.5t471 364zM1694 1091q-146 -166 -251 -276q112 -74 212.5 -103.5t168 37.5t153.5 194q-100 42 -170.5 80.5t-112.5 67.5z
M1563 1178q-47 30 -101 60t-27 72.5t100 11.5t115 -52q67 73 168 218.5t83.5 178.5t-84.5 33.5t-150.5 -40t-180 -125t-173.5 -186.5t-85.5 -224.5t83.5 -195.5q156 149 252 249z" />
    <glyph glyph-name="hbar" unicode="&#x127;" horiz-adv-x="1282" 
d="M1399 158q-186 -92 -253 -114t-137.5 -33t-105.5 -11q-51 0 -103.5 18t-62.5 74t56 113t66 77t-53 -7t-126 -63t-127 -63t-127 -64t-133 -63t-123 -29q-50 0 -66.5 41.5t33.5 84.5t116 125q-233 -111 -289 -111.5t-67 53.5q14 23 101 59t180 77t197 103.5t258 195.5
q107 92 198 188q-97 -11 -183 -11q-43 2 -50 14.5t-39.5 6.5t-58 3.5t-29.5 49.5q0 11 19.5 27t50.5 19t116 -9t273 11q109 126 209 225q108 107 167 150.5t105 55.5q106 -32 109 -82t-125 -179q-69 -70 -149 -144q25 5 95.5 18.5t119.5 15.5t74.5 -8t30.5 -30
q-2 -25 -20 -30.5t-38.5 0.5t-38 -10.5t-50 -14t-129.5 -31t-135 -36t-52 -3.5q-164 -143 -327 -283t-223 -185.5t-94 -106.5q194 106 264 139t133 47t107 -3t50 -70t-30 -110t-56 -83t-10 -43t86 -4t156 48t130 59t74 14t36 -78z" />
    <glyph glyph-name="Itilde" unicode="&#x128;" horiz-adv-x="1450" 
d="M1588 890q100 112 147 206t39 188t-77 134t-171 39t-191 -56t-137 -143t-57 -181t83 -142t364 -45zM1496 768q-186 -4 -280 15t-150 75t-66 128t6 152t57 156t138 168t259 128l92 4q112 -8 187 -44t128 -97t69 -191q0 -72 -16 -119t-87 -166t-261 -316t-376 -346
t-333 -221t-249 -92l-98 -2q-86 2 -149 27t-107 97t-56 160v62q18 126 70 179t156 73q94 -28 100 -102q-18 -80 -88 -95t-70 -101t76 -120t193 -9t220 75t196 119t178 148t261 255zM1460 2134q77 26 92 -25t68.5 -101.5t128 46.5t180.5 107q54 -1 101 -43.5t71.5 -98
t30.5 -93.5q-54 -22 -79 13t-58 73t-78 23.5t-106.5 -92t-134.5 -78.5q-71 0 -112.5 41t-70 110.5t-33.5 117.5z" />
    <glyph glyph-name="itilde" unicode="&#x129;" horiz-adv-x="981" 
d="M554 641q22 0 50.5 -9.5t27.5 -61.5t-60 -88t-88 -77t-47 -91t-1 -100t65 -65t150 -14t179 21t135 55t98 25l12 -48q-26 -42 -123 -91t-224 -78t-249 -29q-82 0 -138 33t-85 79t-31 92t11 91.5t-27.5 -2.5t-111.5 -89t-117 -63t-70 74q162 75 236 171.5t169.5 139
t153.5 89.5q44 36 85 36zM700 1115.13q69.3018 23.4004 82.8027 -22.5q13.5 -45.9014 61.6514 -91.3525q48.1514 -45.4521 115.203 41.8506t162.454 96.3027q48.6016 -0.900391 90.9023 -39.1514q42.3018 -38.251 64.3516 -88.2021q22.0508 -49.9512 27.4512 -84.1523
q-48.6016 -19.8008 -71.1016 11.7002q-22.501 31.501 -52.2021 65.7021q-29.7002 34.2012 -70.2012 21.1504t-95.8525 -82.8018q-55.3516 -69.752 -121.054 -70.6523q-63.9014 0 -101.253 36.9014q-37.3506 36.9004 -63.002 99.4521q-25.6504 62.5518 -30.1504 105.753z" />
    <glyph glyph-name="Imacron" unicode="&#x12a;" horiz-adv-x="1450" 
d="M1588 890q100 112 147 206t39 188t-77 134t-171 39t-191 -56t-137 -143t-57 -181t83 -142t364 -45zM1496 768q-186 -4 -280 15t-150 75t-66 128t6 152t57 156t138 168t259 128l92 4q112 -8 187 -44t128 -97t69 -191q0 -72 -16 -119t-87 -166t-261 -316t-376 -346
t-333 -221t-249 -92l-98 -2q-86 2 -149 27t-107 97t-56 160v62q18 126 70 179t156 73q94 -28 100 -102q-18 -80 -88 -95t-70 -101t76 -120t193 -9t220 75t196 119t178 148t261 255zM1833.52 2043q88.2031 25 126.004 25q9.90039 0 28.8008 -5.5t32.4004 -10
q13.501 -4.5 17.1006 -29.5q-0.899414 -31 -14.8506 -38q-13.9502 -7 -33.3008 -6t-28.8008 -9t-38.7012 -17.5q-29.25 -7.5 -115.203 -46q-85.9521 -38.5 -111.152 -39q-25.2012 -0.5 -82.8027 -3.5t-73.8018 -1t-74.252 -9t-122.854 -11q-32.4004 2 -37.8008 18
t-29.7012 8.5t-43.6514 4t-22.9502 61.5q0 14 14.8506 34t38.251 24t87.752 -11t110.703 9.5t68.4023 11.5t108.003 -10.5t197.555 50.5z" />
    <glyph glyph-name="imacron" unicode="&#x12b;" horiz-adv-x="981" 
d="M554 641q22 0 50.5 -9.5t27.5 -61.5t-60 -88t-88 -77t-47 -91t-1 -100t65 -65t150 -14t179 21t135 55t98 25l12 -48q-26 -42 -123 -91t-224 -78t-249 -29q-82 0 -138 33t-85 79t-31 92t11 91.5t-27.5 -2.5t-111.5 -89t-117 -63t-70 74q162 75 236 171.5t169.5 139
t153.5 89.5q44 36 85 36zM950.991 1035.03q78.3994 22.501 111.999 22.501q8.7998 0 25.5996 -4.9502q16.7988 -4.9502 28.7988 -9.00098q12 -4.0498 15.2002 -26.5498q-0.799805 -27.9014 -13.2002 -34.2012q-12.3994 -6.30078 -29.5996 -5.40039
q-17.1992 0.900391 -25.5996 -8.10059q-8.39941 -9 -34.3994 -15.75q-25.999 -6.75 -102.398 -41.4014q-76.3984 -34.6504 -98.7979 -35.1006q-22.4004 -0.450195 -73.5996 -3.15039t-65.5986 -0.899414q-14.3994 1.7998 -65.999 -8.10059t-109.198 -9.90039
q-28.7998 1.7998 -33.5996 16.2002t-26.3994 7.65039t-38.7998 3.60059q-17.1992 10.3496 -20.3994 55.3506q0 12.6006 13.2002 30.6016q13.1992 18 33.999 21.6006q20.7998 3.59961 77.999 -9.90039q57.1992 -13.501 98.3984 8.5498t60.7988 10.3506t95.999 -9.4502
q76.3984 2.25 175.597 45.4512z" />
    <glyph glyph-name="Ibreve" unicode="&#x12c;" horiz-adv-x="1450" 
d="M1588 890q100 112 147 206t39 188t-77 134t-171 39t-191 -56t-137 -143t-57 -181t83 -142t364 -45zM1496 768q-186 -4 -280 15t-150 75t-66 128t6 152t57 156t138 168t259 128l92 4q112 -8 187 -44t128 -97t69 -191q0 -72 -16 -119t-87 -166t-261 -316t-376 -346
t-333 -221t-249 -92l-98 -2q-86 2 -149 27t-107 97t-56 160v62q18 126 70 179t156 73q94 -28 100 -102q-18 -80 -88 -95t-70 -101t76 -120t193 -9t220 75t196 119t178 148t261 255zM2025 2083q-13 -51 -64.5 -118.5t-118 -113.5t-144.5 -49q-56 3 -99.5 21t-74.5 60.5
t-42.5 97t-13.5 91.5q3 32 18.5 43t46.5 15q48 -5 53 -50t32 -95t69 -63t92.5 11.5t88 56.5t65 68.5t92.5 24.5z" />
    <glyph glyph-name="ibreve" unicode="&#x12d;" horiz-adv-x="981" 
d="M554 641q22 0 50.5 -9.5t27.5 -61.5t-60 -88t-88 -77t-47 -91t-1 -100t65 -65t150 -14t179 21t135 55t98 25l12 -48q-26 -42 -123 -91t-224 -78t-249 -29q-82 0 -138 33t-85 79t-31 92t11 91.5t-27.5 -2.5t-111.5 -89t-117 -63t-70 74q162 75 236 171.5t169.5 139
t153.5 89.5q44 36 85 36zM1086 1171q-13 -51 -64.5 -118.5t-118 -113.5t-144.5 -49q-56 3 -99.5 21t-74.5 60.5t-42.5 97t-13.5 91.5q3 32 18.5 43t46.5 15q48 -5 53 -50t32 -95t69 -63t92.5 11.5t88 56.5t65 68.5t92.5 24.5z" />
    <glyph glyph-name="Iogonek" unicode="&#x12e;" horiz-adv-x="1449" 
d="M1588 890q100 112 147 206t39 188t-77 134t-171 39t-191 -56t-137 -143t-57 -181t83 -142t364 -45zM1496 768q-186 -4 -280 15t-150 75t-66 128t6 152t57 156t138 168t259 128l92 4q112 -8 187 -44t128 -97t69 -191q0 -72 -16 -119t-87 -166t-261 -316t-376 -346
t-333 -221t-249 -92l-98 -2q-86 2 -149 27t-107 97t-56 160v62q18 126 70 179t156 73q94 -28 100 -102q-18 -80 -88 -95t-70 -101t76 -120t193 -9t220 75t196 119t178 148t261 255zM523 -2l62 -3q-22 -74 -14 -149.5t53.5 -129t120 -62.5t112.5 16.5t48 -5.5
q-28 -54 -99.5 -87t-163.5 -33q-73 0 -128.5 54.5t-55.5 167.5q0 62 15.5 122t49.5 109z" />
    <glyph glyph-name="iogonek" unicode="&#x12f;" horiz-adv-x="979" 
d="M479 -10q-102 12 -148 39t-75 73t-31 92t11 91.5t-27.5 -2.5t-111.5 -89t-120 -65.5t-67 76.5q162 75 236 171.5t169.5 139t153.5 89.5t111 32t52 -67t-60 -88t-88 -77t-47 -91t-1 -100t65 -65t150 -14t179 21t135 55t98 25l12 -48q-26 -42 -75 -71t-97 -49t-137 -40
t-203 -34zM999 1263q26 56 100 100l38 2q48 -22 50 -58t50 -68l-14 -34q-48 -30 -106 -42l-36 10q-54 62 -82 90zM470 -13l62 -3q-22 -74 -14 -149.5t53.5 -129t120 -62.5t112.5 16.5t48 -5.5q-28 -54 -99.5 -87t-163.5 -33q-73 0 -128.5 54.5t-55.5 167.5q0 62 15.5 122
t49.5 109z" />
    <glyph glyph-name="Idotaccent" unicode="&#x130;" horiz-adv-x="1449" 
d="M1588 890q100 112 147 206t39 188t-77 134t-171 39t-191 -56t-137 -143t-57 -181t83 -142t364 -45zM1496 768q-186 -4 -280 15t-150 75t-66 128t6 152t57 156t138 168t259 128l92 4q112 -8 187 -44t128 -97t69 -191q0 -72 -16 -119t-87 -166t-261 -316t-376 -346
t-333 -221t-249 -92l-98 -2q-86 2 -149 27t-107 97t-56 160v62q18 126 70 179t156 73q94 -28 100 -102q-18 -80 -88 -95t-70 -101t76 -120t193 -9t220 75t196 119t178 148t261 255zM1843 1835q-78 0 -113 47t-35 86q1 58 40 79.5t60 21.5q33 -1 54.5 -20.5t49 -22t39.5 -40
t12 -59.5q0 -19 -19.5 -53.5t-87.5 -38.5z" />
    <glyph glyph-name="dotlessi" unicode="&#x131;" horiz-adv-x="981" 
d="M554 641q22 0 50.5 -9.5t27.5 -61.5t-60 -88t-88 -77t-47 -91t-1 -100t65 -65t150 -14t179 21t135 55t98 25l12 -48q-26 -42 -123 -91t-224 -78t-249 -29q-82 0 -138 33t-85 79t-31 92t11 91.5t-27.5 -2.5t-111.5 -89t-117 -63t-70 74q162 75 236 171.5t169.5 139
t153.5 89.5q44 36 85 36z" />
    <glyph glyph-name="Jcircumflex" unicode="&#x134;" horiz-adv-x="1289" 
d="M1444 923.425q0 45.001 -7 72.9023q-7 27.9004 29 68.4014q36 40.502 136 20.7012q36 61.2012 99 136.804q63 75.6016 120 130.503q57 54.9023 48 66.6025t-54 -10.8008t-118 -72.9014q-73 -50.4023 -154 -103.503q-81 -53.1016 -167 -126.004
q-86 -72.9014 -179 -177.305t-142 -169.204q-49 -64.8027 -34 -89.1025q15 -24.3008 56 -19.8008t84 24.3008q43 19.7998 77 50.4014q34 30.6006 206 198.005zM264 -304.208q-94 7.2002 -165 -9.00098q-71 -16.2002 -150 -48.6006q-79 -32.4014 -176 -83.7021
q-97 -51.3018 -208 -122.403q-111 -71.1025 -187 -129.604q-76 -58.502 -194 -178.205t-165 -179.104q-47 -59.4023 -4 -75.6025t90 -12.6006q47 3.60059 116 42.3018q69 38.7002 181 109.803q112 71.1016 259 177.305t469 370.81q-8 93.6035 134 138.604zM-1188 -1155.63
q10 66.6016 71 133.203t160 160.204t208 179.105q109 85.502 224 164.704t244 150.304q129 71.1025 208 99.9033t156 46.8008q77 18.001 127 22.501t146 4.5q148 126.003 286 259.207t215 218.706t142 136.804t88 79.2021t9 36.9004q-14 9.00098 -48 -1.7998
q-34 -10.7998 -84 -9t-77 32.4014q-27 30.6006 -36 67.501q-9 36.9014 0 90.0029t52 108.003t251 235.807q208 180.904 353 280.808q145 99.9023 231 140.403t169 71.1025q83 30.6006 116 35.1006t49 4.5q22 0 43 -5.40039q21 -5.39941 21 -43.2012
q-6 -37.8008 -42 -90.9023t-88 -99.9023q-52 -46.8018 -99 -87.3027t-160 -174.604t-267 -303.309q-154 -169.204 -337 -374.41q-183 -205.205 -350 -367.21q-167 -162.004 -208 -198.905q-41 -36.9004 -113 -105.303q24 -115.203 -10 -167.404t-83 -68.4023
q-49 -16.2002 -93 -12.5996q-44 3.59961 -78 9q-138 -124.203 -409 -329.409t-418 -290.708t-219 -108.902q-72 -23.4014 -154 -28.8008q-94 3.59961 -135 25.2002t-61 75.6025zM2049.58 1853.83q56.0986 -62.1016 56.0986 -104.403q0 -12.6006 -5.5 -23.4004
q-85.7979 41.4014 -149.597 96.3027t-87.998 146.704q-118.797 -25.2012 -203.495 -73.8027q-84.6982 -48.6006 -137.497 -96.3018q-52.7988 -47.7021 -104.498 -46.3516q-51.6982 1.34961 -70.3984 22.0508q-18.6992 20.7002 -18.6992 50.4014q0 72.9014 78.0986 69.3018
q89.0977 -4.5 204.595 54.9014q115.498 59.4014 168.297 119.703t136.396 67.502q52.7988 -25.2012 57.1992 -113.403q4.39941 -88.2021 76.998 -169.204z" />
    <glyph glyph-name="jcircumflex" unicode="&#x135;" horiz-adv-x="794" 
d="M-145 -336q-127 -82 -284 -217t-250 -235t-148 -169t-77 -116t-11 -72t47 3t111 95t224.5 232t225.5 264.5t162 214.5zM370 292q-168 -102 -215 -122t-187 -34q-14 86 68 103t199 73t181 92t128 76t120 88t96 57t76 -5t22 -50t-64 -80t-130 -98t-134 -101t-90 -93
t-49 -80t22 -27t113 31t156 62t125 55t85 -13q-62 -72 -126 -109t-127 -58t-137 -41t-141 -50t-129 -80t-107 -84t-97 -86t-122 -163.5t-205.5 -277t-255.5 -286.5t-212.5 -195t-210.5 -100q-108 28 -114 110q10 60 89 170t183 226t241 239t291 232t238 162t131 88t83 72
t57 83t57 98t92 116zM1071 1189q41 -23 44.5 -106t59.5 -160q43 -58 43 -98q0 -12 -4 -22q-66 39 -115.5 90.5t-67.5 138.5q-92 -24 -157 -69.5t-106 -90.5t-80.5 -44t-54 20.5t-14.5 47.5q0 69 60 65q69 -4 158 52t129.5 113t104.5 63z" />
    <glyph glyph-name="Kcedilla" unicode="&#x136;" horiz-adv-x="1629" 
d="M1909 1696q125 -20 150 -99.5t-66.5 -128t-177 -39.5t-151.5 -37.5t-199 -249t-225.5 -269.5t-71 -98t91.5 -18t615 191q-81 63 -59 92t165 -39q125 64 202 36.5t83 -103.5q-14 -95 -99 -115.5t-215 56.5q-184 -82 -337.5 -143.5t-271 -93.5t-86 -101t18.5 -183
t-106 -390t-95 -353.5t46.5 -123t120 -30.5t140 45t105 14t33 -64t-88.5 -85t-239 -43q-132 3 -207 72t-84.5 201.5t83.5 383.5t100.5 381t-12.5 200t-110.5 -10.5t-250.5 -249.5t-184 -242.5t-111 -71.5t-123.5 -19t-64.5 -7t-30 72q52 98 52 125t35 59t120.5 34t254 188
t392.5 445t284 336t-28 116t-176.5 44t-152 -10t-79.5 -49t-3.5 -72t4 -76t-66.5 -36t-74 85t-10 125t0 78t-15 55t15 56t47 45t57 -1t128 -49t254.5 -58.5t270 17t160.5 93.5t97 83t145 29zM1353 -920q0 -40 -27 -81.5t-80 -66.5t-136 -25q-63 0 -125.5 27.5t-62.5 61.5
q6 19 21 23t64.5 -12t128.5 -0.5t75.5 85.5t-64.5 71.5t-64.5 38t23 65t45.5 57.5l77 -1q-67 -91 -3.5 -101.5t96 -55.5t32.5 -86z" />
    <glyph glyph-name="kcedilla" unicode="&#x137;" horiz-adv-x="1669" 
d="M296 275q-157 -109 -258 -151.5t-107 6.5q1 51 61.5 82.5t197.5 108.5t259.5 183t207.5 209t180 198t167 170t134 101l24 -2q32 -84 -64 -190t-231 -269t-245 -285t-116 -178q200 96 352 193t265 152t156 50t68 -52t-7 -106t-115 -55t-152 -26t-140 -68t-104 -70t-5 -85
t106 -72t196 -17t209 16t149 37t88 54t52 26t34 -49q-12 -58 -70 -101t-158 -68t-255 -29t-284 6t-189 47t-46 167q-84 -60 -172 -115t-174 -113q-58 -38 -100 -38q-22 0 -40 10q-54 32 -41 82t167 241zM1152 -256q0 -40 -27 -81.5t-80 -66.5t-136 -25q-63 0 -125.5 27.5
t-62.5 61.5q6 19 21 23t64.5 -12t128.5 -0.5t75.5 85.5t-64.5 71.5t-64.5 38t23 65t45.5 57.5l77 -1q-67 -91 -3.5 -101.5t96 -55.5t32.5 -86z" />
    </font>
</defs>
</svg>
